Aerosmith – Get Your Wings




Artist: Aerosmith
Year: 1974/1988
Genre: Rock
Notes: Discogs
Add. Notes:
Cover incl.: Yes
Encoder: FLAC
Bitrate: ~800 kBit/s (44.1 kHz/16 Bit/s)
Log & Cue incl.: Yes
Size: 234,85 MB
Password: “slam” (without ” “)


All Downloads/Hosters are compatible

Download 1
Turbobit.net
Rapidgator.net
KatFile.com
UploadRar.com
Download 2
Turbobit.net
Rapidgator.net
KatFile.com
UploadRar.com
Download 3
Turbobit.net
Rapidgator.net
KatFile.com
UploadRar.com

Tracklist:

1 - Same Old Song And Dance - 3:53
2 - Lord Of The Thighs - 4:14
3 - Spaced - 4:21
4 - Woman Of The World - 5:48
5 - S.O.S. (Too Bad) - 2:53
6 - Train Kept A Rollin' - 5:33
7 - Seasons Of Wither - 5:38
8 - Pandora's Box - 5:43

EAC-Log, CUE-Sheed & NFO:

Click to open spoiler
Exact Audio Copy V1.0 beta 2 from 29. April 2011

Отчёт EAC об извлечении, выполненном 10. июня 2013, 22:11

Aerosmith / Get Your Wings

Дисковод: MATSHITADVD-RAM UJ8A0AS Adapter: 1 ID: 0

Режим чтения : Достоверность
Использование точного потока : Да
Отключение кэша аудио : Да
Использование указателей C2 : Нет

Коррекция смещения при чтении : 102
Способность читать области Lead-in и Lead-out : Нет
Заполнение пропущенных сэмплов тишиной : Да
Удаление блоков с тишиной в начале и конце : Нет
При вычислениях CRC использовались нулевые сэмплы : Да
Интерфейс : Встроенный Win32-интерфейс для Win NT/2000

Выходной формат : Пользовательский кодировщик
Выбранный битрейт : 128 kBit/s
Качество : Высокий
Добавление ID3-тега : Нет
Утилита сжатия : C:\Program Files (x86)\Exact Audio Copy\Flac\flac.exe
Дополнительные параметры : -V -8 -T “Date=%year%” -T “Genre=%genre%” %source%

TOC извлечённого CD

Трек | Старт | Длительность | Начальный сектор | Конечный сектор
———————————————————————
1 | 0:00.00 | 3:54.05 | 0 | 17554
2 | 3:54.05 | 4:14.52 | 17555 | 36656
3 | 8:08.57 | 4:21.68 | 36657 | 56299
4 | 12:30.50 | 5:46.72 | 56300 | 82321
5 | 18:17.47 | 2:51.58 | 82322 | 95204
6 | 21:09.30 | 5:45.62 | 95205 | 121141
7 | 26:55.17 | 5:33.05 | 121142 | 146121
8 | 32:28.22 | 5:34.70 | 146122 | 171241

Характеристики диапазона извлечения и сообщения об ошибках

Выбранный диапазон

Имя файла D:\Музыка\torrents\Aerosmith – Discography\Albums\Aerosmith (1974) – Get Your Wings [USA CK 32847]\Aerosmith – Get Your Wings.wav

Пиковый уровень 100.0 %
Скорость извлечения 1.1 X
Качество диапазона 100.0 %
CRC теста 7ABE3557
CRC копии 7ABE3557
Копирование… OK

Ошибок не произошло

Конец отчёта

==== Контрольная сумма отчёта 4C55FD6DC032B6403CCB0CF3DA7694C96E1462080D0AA9B3D517114492F3E9A7 ====

REM GENRE Hard Rock
REM DATE 1974
REM DISCID 6408EB08
REM COMMENT “ExactAudioCopy v1.0b2”
PERFORMER “Aerosmith”
TITLE “Get Your Wings [USA CK 32847]”
FILE “Aerosmith – Get Your Wings.flac” WAVE
TRACK 01 AUDIO
TITLE “Same Old Song and Dance”
PERFORMER “Aerosmith”
INDEX 01 00:00:00
TRACK 02 AUDIO
TITLE “Lord of the Thighs”
PERFORMER “Aerosmith”
INDEX 00 03:53:12
INDEX 01 03:54:05
TRACK 03 AUDIO
TITLE “Spaced”
PERFORMER “Aerosmith”
INDEX 01 08:08:57
TRACK 04 AUDIO
TITLE “Woman of the World”
PERFORMER “Aerosmith”
INDEX 00 12:29:40
INDEX 01 12:30:50
TRACK 05 AUDIO
TITLE “S.O.S. (Too Bad)”
PERFORMER “Aerosmith”
INDEX 00 18:13:60
INDEX 01 18:17:47
TRACK 06 AUDIO
TITLE “Train Kept a Rollin'”
PERFORMER “Aerosmith”
INDEX 00 21:08:22
INDEX 01 21:09:30
TRACK 07 AUDIO
TITLE “Seasons of Wither”
PERFORMER “Aerosmith”
INDEX 00 26:43:20
INDEX 01 26:55:17
TRACK 08 AUDIO
TITLE “Pandora’s Box”
PERFORMER “Aerosmith”
INDEX 00 32:22:65
INDEX 01 32:28:22


Leave a Reply

Your email address will not be published. Required fields are marked *

This site uses Akismet to reduce spam. Learn how your comment data is processed.