Aerosmith – Get A Grip (Limited Edition)




Artist: Aerosmith
Year: 1993
Genre: Rock
Notes: Discogs
Add. Notes: Limited Edition
Cover incl.: Yes
Encoder: FLAC
Bitrate: ~1000 kBit/s (44.1 kHz/16 Bit/s)
Log & Cue incl.: Yes
Size: 450,13 MB
Password: “slam” (without ” “)


All Downloads/Hosters are compatible

Download 1
Turbobit.net
Rapidgator.net
UploadEver.com
KatFile.com
UsersDrive.com
Download 2
Turbobit.net
Rapidgator.net
UploadEver.com
KatFile.com
UsersDrive.com
Download 3
Turbobit.net
Rapidgator.net
UploadEver.com
KatFile.com
UsersDrive.com

Tracklist:

1 - Intro - 0:24
2 - Eat The Rich - 4:10
3 - Get A Grip - 3:58
4 - Fever - 4:14
5 - Livin' On The Edge - 6:07
6 - Flesh - 5:56
7 - Walk On Down - 3:38
8 - Shut Up And Dance - 4:56
9 - Cryin' - 5:08
10 - Gotta Love It - 5:58
11 - Crazy - 5:17
12 - Line Up - 4:03
13 - Can't Stop Messin' - 3:30
14 - Amazing - 5:56
15 - Boogie Man - 2:15

EAC-Log, CUE-Sheed & NFO:

Click to open spoiler
Exact Audio Copy V1.0 beta 2 from 29. April 2011

Отчёт EAC об извлечении, выполненном 15. августа 2013, 1:52

Aerosmith / Get A Grip (Special Edition)

Дисковод: MATSHITADVD-RAM UJ8A0AS Adapter: 1 ID: 0

Режим чтения : Достоверность
Использование точного потока : Да
Отключение кэша аудио : Да
Использование указателей C2 : Нет

Коррекция смещения при чтении : 102
Способность читать области Lead-in и Lead-out : Нет
Заполнение пропущенных сэмплов тишиной : Да
Удаление блоков с тишиной в начале и конце : Нет
При вычислениях CRC использовались нулевые сэмплы : Да
Интерфейс : Встроенный Win32-интерфейс для Win NT/2000

Выходной формат : Пользовательский кодировщик
Выбранный битрейт : 128 kBit/s
Качество : Высокий
Добавление ID3-тега : Нет
Утилита сжатия : C:\Program Files\foobar2000\encoders\flac.exe
Дополнительные параметры : -V -8 -T “Date=%year%” -T “Genre=%genre%” %source%

TOC извлечённого CD

Трек | Старт | Длительность | Начальный сектор | Конечный сектор
———————————————————————
1 | 0:00.00 | 0:23.55 | 0 | 1779
2 | 0:23.55 | 4:10.37 | 1780 | 20566
3 | 4:34.17 | 3:57.70 | 20567 | 38411
4 | 8:32.12 | 4:15.10 | 38412 | 57546
5 | 12:47.22 | 6:07.08 | 57547 | 85079
6 | 18:54.30 | 5:56.52 | 85080 | 111831
7 | 24:51.07 | 3:39.18 | 111832 | 128274
8 | 28:30.25 | 4:55.47 | 128275 | 150446
9 | 33:25.72 | 5:08.38 | 150447 | 173584
10 | 38:34.35 | 5:58.17 | 173585 | 200451
11 | 44:32.52 | 5:16.63 | 200452 | 224214
12 | 49:49.40 | 4:02.35 | 224215 | 242399
13 | 53:52.00 | 5:56.15 | 242400 | 269114
14 | 59:48.15 | 2:16.65 | 269115 | 279379

Характеристики диапазона извлечения и сообщения об ошибках

Выбранный диапазон

Имя файла E:\Музыка\torrents\Aerosmith – Discography\Albums\Aerosmith (1993) – Get A Grip [USA GEFD-24530]\Aerosmith – Get A Grip.wav

Пиковый уровень 100.0 %
Скорость извлечения 1.2 X
Качество диапазона 99.9 %
CRC теста 0995F677
CRC копии 0995F677
Копирование… OK

Ошибок не произошло

Конец отчёта

==== Контрольная сумма отчёта 0C86ABFFA36EE55E7F4CEFECB515B74AB7F7CC6A60599EE1128A472B499C1F36 ====

REM GENRE Hard Rock
REM DATE 1993
REM DISCID B90E8D0E
REM COMMENT “ExactAudioCopy v1.0b2”
PERFORMER “Aerosmith”
TITLE “Get A Grip [USA GEFD-24530]”
FILE “Aerosmith – Get A Grip.flac” WAVE
TRACK 01 AUDIO
TITLE “Intro”
PERFORMER “Aerosmith”
INDEX 01 00:00:00
TRACK 02 AUDIO
TITLE “Eat The Rich”
PERFORMER “Aerosmith”
INDEX 01 00:23:55
TRACK 03 AUDIO
TITLE “Get A Grip”
PERFORMER “Aerosmith”
INDEX 01 04:34:17
TRACK 04 AUDIO
TITLE “Fever”
PERFORMER “Aerosmith”
INDEX 01 08:32:12
TRACK 05 AUDIO
TITLE “Livin’ On The Edge”
PERFORMER “Aerosmith”
INDEX 01 12:47:22
TRACK 06 AUDIO
TITLE “Flesh”
PERFORMER “Aerosmith”
INDEX 01 18:54:30
TRACK 07 AUDIO
TITLE “Walk On Down”
PERFORMER “Aerosmith”
INDEX 01 24:51:07
TRACK 08 AUDIO
TITLE “Shut Up And Dance”
PERFORMER “Aerosmith”
INDEX 01 28:30:25
TRACK 09 AUDIO
TITLE “Cryin'”
PERFORMER “Aerosmith”
INDEX 01 33:25:72
TRACK 10 AUDIO
TITLE “Gotta Love It”
PERFORMER “Aerosmith”
INDEX 01 38:34:35
TRACK 11 AUDIO
TITLE “Crazy”
PERFORMER “Aerosmith”
INDEX 01 44:32:52
TRACK 12 AUDIO
TITLE “Line Up”
PERFORMER “Aerosmith”
INDEX 01 49:49:40
TRACK 13 AUDIO
TITLE “Amazing”
PERFORMER “Aerosmith”
INDEX 01 53:52:00
TRACK 14 AUDIO
TITLE “Boogie Man”
PERFORMER “Aerosmith”
INDEX 01 59:48:15


Leave a Reply

Your email address will not be published. Required fields are marked *

This site uses Akismet to reduce spam. Learn how your comment data is processed.