Aerosmith – Get A Grip (Japanese Edition)




[Total: 0    Average: 0/5]

Artist: Aerosmith
Year: 1993
Genre: Rock
Notes: Discogs
Add. Notes: Japanese Edition
Cover incl.: Yes
Encoder: FLAC
Bitrate: ~1000 kBit/s (44.1 kHz/16 Bit/s)
Log & Cue incl.: Yes
Size: 509,47 MB
Password: “slam” (without ” “)


All Downloads/Hosters are compatible

Download 1
Share-online.biz
Rapidgator.net
UploadEver.com
JustUpload.io
UsersDrive.com
Download 2
Share-online.biz
Rapidgator.net
UploadEver.com
JustUpload.io
UsersDrive.com
Download 3
Share-online.biz
Rapidgator.net
UploadEver.com
JustUpload.io
UsersDrive.com

Tracklist:

1 - Intro - 0:24
2 - Eat The Rich - 4:10
3 - Get A Grip - 3:58
4 - Fever - 4:14
5 - Livin' On The Edge - 6:07
6 - Flesh - 5:56
7 - Walk On Down - 3:38
8 - Shut Up And Dance - 4:56
9 - Cryin' - 5:08
10 - Gotta Love It - 5:58
11 - Crazy - 5:17
12 - Line Up - 4:03
13 - Can't Stop Messin' (Japan Bonus) - 3:30
14 - Amazing - 5:56
15 - Boogie Man - 2:15

EAC-Log, CUE-Sheed & NFO:

Click to open spoiler
Exact Audio Copy V0.99 prebeta 4 from 23. January 2008

EAC extraction logfile from 14. July 2010, 16:38

Aerosmith / Get A Grip (MVCG-108)

Used drive : PLEXTOR DVDR PX-760A Adapter: 0 ID: 0

Read mode : Secure
Utilize accurate stream : Yes
Defeat audio cache : Yes
Make use of C2 pointers : No

Read offset correction : 30
Overread into Lead-In and Lead-Out : No
Fill up missing offset samples with silence : Yes
Delete leading and trailing silent blocks : No
Null samples used in CRC calculations : Yes
Used interface : Installed external ASPI interface

Used output format : Internal WAV Routines
Sample format : 44.100 Hz; 16 Bit; Stereo

TOC of the extracted CD

Track | Start | Length | Start sector | End sector
———————————————————
1 | 0:00.37 | 0:24.25 | 37 | 1861
2 | 0:24.62 | 4:10.37 | 1862 | 20648
3 | 4:35.24 | 3:57.70 | 20649 | 38493
4 | 8:33.19 | 4:15.13 | 38494 | 57631
5 | 12:48.32 | 6:07.05 | 57632 | 85161
6 | 18:55.37 | 5:56.52 | 85162 | 111913
7 | 24:52.14 | 3:39.20 | 111914 | 128358
8 | 28:31.34 | 4:55.48 | 128359 | 150531
9 | 33:27.07 | 5:08.32 | 150532 | 173663
10 | 38:35.39 | 5:58.20 | 173664 | 200533
11 | 44:33.59 | 5:16.63 | 200534 | 224296
12 | 49:50.47 | 4:02.67 | 224297 | 242513
13 | 53:53.39 | 3:30.63 | 242514 | 258326
14 | 57:24.27 | 5:56.22 | 258327 | 285048
15 | 63:20.49 | 2:18.23 | 285049 | 295421

Range status and errors

Selected range

Filename D:\bki71\Aerosmith – Get A Grip (MVCG-108).wav

Peak level 100.0 %
Range quality 99.9 %
Test CRC 01E85502
Copy CRC 01E85502
Copy OK

No errors occurred

AccurateRip summary

Track 1 accurately ripped (confidence 3) [9B252781]
Track 2 accurately ripped (confidence 3) [165CA536]
Track 3 accurately ripped (confidence 3) [4EB84DF9]
Track 4 accurately ripped (confidence 3) [116119E3]
Track 5 accurately ripped (confidence 3) [A9F20D56]
Track 6 accurately ripped (confidence 3) [ACCF40B8]
Track 7 accurately ripped (confidence 3) [7092D1ED]
Track 8 accurately ripped (confidence 3) [F38F03D1]
Track 9 accurately ripped (confidence 3) [C20A1C2B]
Track 10 accurately ripped (confidence 3) [78CF530A]
Track 11 accurately ripped (confidence 3) [33B4DA73]
Track 12 accurately ripped (confidence 3) [6235B728]
Track 13 accurately ripped (confidence 3) [4C8A9542]
Track 14 accurately ripped (confidence 3) [326A98F5]
Track 15 accurately ripped (confidence 3) [3D70F4E1]

All tracks accurately ripped

End of status report

REM GENRE Hard Rock
REM DATE 1993
REM DISCID CA0F620F
REM COMMENT “ExactAudioCopy v0.99pb4”
PERFORMER “Aerosmith”
TITLE “Get A Grip [JAPAN MVCG-108]”
FILE “Aerosmith – Get A Grip [MVCG-108].flac” WAVE
TRACK 01 AUDIO
TITLE “Intro”
PERFORMER “Aerosmith”
INDEX 00 00:00:00
INDEX 01 00:00:37
TRACK 02 AUDIO
TITLE “Eat The Rich”
PERFORMER “Aerosmith”
INDEX 01 00:24:62
TRACK 03 AUDIO
TITLE “Get A Grip”
PERFORMER “Aerosmith”
INDEX 01 04:35:24
TRACK 04 AUDIO
TITLE “Fever”
PERFORMER “Aerosmith”
INDEX 01 08:33:19
TRACK 05 AUDIO
TITLE “Livin’ On The Edge”
PERFORMER “Aerosmith”
INDEX 01 12:48:32
TRACK 06 AUDIO
TITLE “Flesh”
PERFORMER “Aerosmith”
INDEX 01 18:55:37
TRACK 07 AUDIO
TITLE “Walk On Down”
PERFORMER “Aerosmith”
INDEX 01 24:52:14
TRACK 08 AUDIO
TITLE “Shut Up And Dance”
PERFORMER “Aerosmith”
INDEX 01 28:31:34
TRACK 09 AUDIO
TITLE “Cryin'”
PERFORMER “Aerosmith”
INDEX 01 33:27:07
TRACK 10 AUDIO
TITLE “Gotta Love It”
PERFORMER “Aerosmith”
INDEX 01 38:35:39
TRACK 11 AUDIO
TITLE “Crazy”
PERFORMER “Aerosmith”
INDEX 01 44:33:59
TRACK 12 AUDIO
TITLE “Line Up”
PERFORMER “Aerosmith”
INDEX 01 49:50:47
TRACK 13 AUDIO
TITLE “Can’t Stop Messin'”
PERFORMER “Aerosmith”
INDEX 00 53:53:23
INDEX 01 53:53:39
TRACK 14 AUDIO
TITLE “Amazing”
PERFORMER “Aerosmith”
INDEX 01 57:24:27
TRACK 15 AUDIO
TITLE “Boogie Man”
PERFORMER “Aerosmith”
INDEX 01 63:20:49

Spread the Download

Leave a Reply

Your email address will not be published. Required fields are marked *

Enter the text from the image below
 

This site uses Akismet to reduce spam. Learn how your comment data is processed.