Aerosmith – Gems (Japanese Edition)




Artist: Aerosmith
Year: 1988
Genre: Rock
Notes: Discogs
Add. Notes: Japanese Edition
Cover incl.: Yes
Encoder: FLAC
Bitrate: ~900 kBit/s (44.1 kHz/16 Bit/s)
Log & Cue incl.: Yes
Size: 436,03 MB
Password: “slam” (without ” “)


All Downloads/Hosters are compatible

Download 1
Turbobit.net
Rapidgator.net
KatFile.com
UsersDrive.com
CloudShare.to
Download 2
Turbobit.net
Rapidgator.net
KatFile.com
UsersDrive.com
CloudShare.to
Download 3
Turbobit.net
Rapidgator.net
KatFile.com
UsersDrive.com
CloudShare.to

Tracklist:

1 - Rats In The Cellar - 4:05
2 - Lick And A Promise - 3:03
3 - Chip Away The Stone - 4:00
4 - No Surprize - 4:25
5 - Mama Kin - 4:24
6 - Adam's Apple - 4:32
7 - Nobody's Fault - 4:17
8 - Round And Round - 5:01
9 - Critical Mass - 4:51
10 - Lord Of The Thighs - 4:14
11 - Jailbait - 4:36
12 - Train Kept A Rollin' - 5:42

EAC-Log, CUE-Sheed & NFO:

Click to open spoiler
Exact Audio Copy V1.0 beta 2 from 29. April 2011

Отчёт EAC об извлечении, выполненном 13. сентября 2013, 11:54

Aerosmith / Gems

Дисковод: MATSHITADVD-RAM UJ8A0AS Adapter: 1 ID: 0

Режим чтения : Достоверность
Использование точного потока : Да
Отключение кэша аудио : Да
Использование указателей C2 : Нет

Коррекция смещения при чтении : 102
Способность читать области Lead-in и Lead-out : Нет
Заполнение пропущенных сэмплов тишиной : Да
Удаление блоков с тишиной в начале и конце : Нет
При вычислениях CRC использовались нулевые сэмплы : Да
Интерфейс : Встроенный Win32-интерфейс для Win NT/2000

Выходной формат : Пользовательский кодировщик
Выбранный битрейт : 128 kBit/s
Качество : Высокий
Добавление ID3-тега : Нет
Утилита сжатия : C:\Program Files\foobar2000\encoders\flac.exe
Дополнительные параметры : -V -8 -T “Date=%year%” -T “Genre=%genre%” %source%

TOC извлечённого CD

Трек | Старт | Длительность | Начальный сектор | Конечный сектор
———————————————————————
1 | 0:00.00 | 4:05.12 | 0 | 18386
2 | 4:05.12 | 3:03.43 | 18387 | 32154
3 | 7:08.55 | 4:00.25 | 32155 | 50179
4 | 11:09.05 | 4:26.25 | 50180 | 70154
5 | 15:35.30 | 4:24.62 | 70155 | 90016
6 | 20:00.17 | 4:32.23 | 90017 | 110439
7 | 24:32.40 | 4:19.45 | 110440 | 129909
8 | 28:52.10 | 5:03.17 | 129910 | 152651
9 | 33:55.27 | 4:51.08 | 152652 | 174484
10 | 38:46.35 | 4:15.52 | 174485 | 193661
11 | 43:02.12 | 4:37.63 | 193662 | 214499
12 | 47:40.00 | 5:42.20 | 214500 | 240169

Характеристики диапазона извлечения и сообщения об ошибках

Выбранный диапазон

Имя файла E:\Музыка\torrents\Aerosmith – Discography\Compilations\Aerosmith (1988) – Gems [Japan 25DP 5367]\Aerosmith – Gems.wav

Пиковый уровень 91.1 %
Скорость извлечения 1.2 X
Качество диапазона 100.0 %
CRC теста A8C4532D
CRC копии A8C4532D
Копирование… OK

Ошибок не произошло

Конец отчёта

==== Контрольная сумма отчёта 13036D33AA2F529391A974813DC7963AA8A637B73D00EBA91431A4B707233A32 ====

REM GENRE “Hard Rock”
REM DATE 1988
REM DISCID 9B0C820C
REM COMMENT “ExactAudioCopy v1.0b2”
PERFORMER “Aerosmith”
TITLE “Gems [Japan 25DP 5367]”
FILE “Aerosmith – Gems.flac” WAVE
TRACK 01 AUDIO
TITLE “Rats In The Cellar”
PERFORMER “Aerosmith”
INDEX 01 00:00:00
TRACK 02 AUDIO
TITLE “Lick And Promise”
PERFORMER “Aerosmith”
INDEX 01 04:05:12
TRACK 03 AUDIO
TITLE “Chip Away The Stone”
PERFORMER “Aerosmith”
INDEX 01 07:08:55
TRACK 04 AUDIO
TITLE “No Surprize”
PERFORMER “Aerosmith”
INDEX 01 11:09:05
TRACK 05 AUDIO
TITLE “Mama Kin”
PERFORMER “Aerosmith”
INDEX 00 15:34:05
INDEX 01 15:35:30
TRACK 06 AUDIO
TITLE “Adam’s Apple”
PERFORMER “Aerosmith”
INDEX 01 20:00:17
TRACK 07 AUDIO
TITLE “Nobody’s Fault”
PERFORMER “Aerosmith”
INDEX 01 24:32:40
TRACK 08 AUDIO
TITLE “Round And Round”
PERFORMER “Aerosmith”
INDEX 00 28:50:05
INDEX 01 28:52:10
TRACK 09 AUDIO
TITLE “Critical Mass”
PERFORMER “Aerosmith”
INDEX 00 33:53:27
INDEX 01 33:55:27
TRACK 10 AUDIO
TITLE “Lord Of The Thighs”
PERFORMER “Aerosmith”
INDEX 01 38:46:35
TRACK 11 AUDIO
TITLE “Jailbait”
PERFORMER “Aerosmith”
INDEX 00 43:01:30
INDEX 01 43:02:12
TRACK 12 AUDIO
TITLE “Train Kept A Rollin'”
PERFORMER “Aerosmith”
INDEX 00 47:38:25
INDEX 01 47:40:00

Leave a Reply

Your email address will not be published. Required fields are marked *

This site uses Akismet to reduce spam. Learn how your comment data is processed.