Aerosmith – Draw the Line (Japanese Edition)




Artist: Aerosmith
Year: 1977
Genre: Rock
Notes: Discogs
Add. Notes: Japanese Edition
Cover incl.: Yes
Encoder: FLAC
Bitrate: ~900 kBit/s (44.1 kHz/16 Bit/s)
Log & Cue incl.: Yes
Size: 292,56 MB
Password: “slam” (without ” “)


All Downloads/Hosters are compatible

Download 1
Turbobit.net
Rapidgator.net
UploadEver.com
JustUpload.io
HexUpload.net
Download 2
Turbobit.net
Rapidgator.net
UploadEver.com
JustUpload.io
HexUpload.net
Download 3
Turbobit.net
Rapidgator.net
UploadEver.com
JustUpload.io
HexUpload.net

Tracklist:

1 - Draw The Line - 3:24
2 - I Wanna Know Why - 3:09
3 - Critical Mass - 4:52
4 - Get It Up - 4:02
5 - Bright Light Fright - 2:20
6 - Kings And Queens - 4:55
7 - The Hand That Feeds - 4:23
8 - Sight For Sore Eyes - 3:56
9 - Milk Cow Blues - 4:13

EAC-Log, CUE-Sheed & NFO:

Click to open spoiler
Exact Audio Copy V1.0 beta 2 from 29. April 2011

Отчёт EAC об извлечении, выполненном 24. июля 2013, 17:26

Aerosmith / Draw the Line

Дисковод: MATSHITADVD-RAM UJ8A0AS Adapter: 1 ID: 0

Режим чтения : Достоверность
Использование точного потока : Да
Отключение кэша аудио : Да
Использование указателей C2 : Нет

Коррекция смещения при чтении : 102
Способность читать области Lead-in и Lead-out : Нет
Заполнение пропущенных сэмплов тишиной : Да
Удаление блоков с тишиной в начале и конце : Нет
При вычислениях CRC использовались нулевые сэмплы : Да
Интерфейс : Встроенный Win32-интерфейс для Win NT/2000

Выходной формат : Пользовательский кодировщик
Выбранный битрейт : 128 kBit/s
Качество : Высокий
Добавление ID3-тега : Нет
Утилита сжатия : C:\Program Files\foobar2000\encoders\flac.exe
Дополнительные параметры : -V -8 -T “Date=%year%” -T “Genre=%genre%” %source%

TOC извлечённого CD

Трек | Старт | Длительность | Начальный сектор | Конечный сектор
———————————————————————
1 | 0:00.00 | 3:22.35 | 0 | 15184
2 | 3:22.35 | 3:08.15 | 15185 | 29299
3 | 6:30.50 | 4:50.55 | 29300 | 51104
4 | 11:21.30 | 4:01.32 | 51105 | 69211
5 | 15:22.62 | 2:19.20 | 69212 | 79656
6 | 17:42.07 | 4:53.55 | 79657 | 101686
7 | 22:35.62 | 4:21.63 | 101687 | 121324
8 | 26:57.50 | 3:51.22 | 121325 | 138671
9 | 30:48.72 | 4:12.53 | 138672 | 157624

Характеристики диапазона извлечения и сообщения об ошибках

Выбранный диапазон

Имя файла E:\Музыка\torrents\Aerosmith – Discography\Albums\Aerosmith (1977) – Draw the Line [CSCS 6065]\Aerosmith – Draw the Line.wav

Пиковый уровень 90.2 %
Скорость извлечения 1.1 X
Качество диапазона 100.0 %
CRC теста BD57AF2E
CRC копии BD57AF2E
Копирование… OK

Ошибок не произошло

Конец отчёта

==== Контрольная сумма отчёта 589553996416EFEC6051E6D3ED2E2484BE5D9DDE6351E0899B2EFD67AFE42334 ====

REM GENRE “Hard Rock”
REM DATE 1977
REM DISCID 70083509
REM COMMENT “ExactAudioCopy v1.0b2”
PERFORMER “Aerosmith”
TITLE “Draw the Line [Japan CSCS 6065]”
FILE “Aerosmith – Draw the Line.flac” WAVE
TRACK 01 AUDIO
TITLE “Draw The Line”
PERFORMER “Aerosmith”
INDEX 01 00:00:00
TRACK 02 AUDIO
TITLE “I Wanna Know Why”
PERFORMER “Aerosmith”
INDEX 01 03:22:35
TRACK 03 AUDIO
TITLE “Critical Mass”
PERFORMER “Aerosmith”
INDEX 01 06:30:50
TRACK 04 AUDIO
TITLE “Get It Up”
PERFORMER “Aerosmith”
INDEX 01 11:21:30
TRACK 05 AUDIO
TITLE “Bright Light Fright”
PERFORMER “Aerosmith”
INDEX 01 15:22:62
TRACK 06 AUDIO
TITLE “Kings And Queens”
PERFORMER “Aerosmith”
INDEX 01 17:42:07
TRACK 07 AUDIO
TITLE “The Hand That Feeds”
PERFORMER “Aerosmith”
INDEX 01 22:35:62
TRACK 08 AUDIO
TITLE “Sight For Sore Eyes”
PERFORMER “Aerosmith”
INDEX 01 26:57:50
TRACK 09 AUDIO
TITLE “Milk Cow Blues”
PERFORMER “Aerosmith”
INDEX 01 30:48:72

Leave a Reply

Your email address will not be published. Required fields are marked *

This site uses Akismet to reduce spam. Learn how your comment data is processed.