Aerosmith – Done With Mirrors




Artist: Aerosmith
Year: 1985
Genre: Rock
Notes: Discogs
Add. Notes:
Cover incl.: Yes
Encoder: FLAC
Bitrate: ~1000 kBit/s (44.1 kHz/16 Bit/s)
Log & Cue incl.: Yes
Size: 277,3 MB
Password: “slam” (without ” “)


All Downloads/Hosters are compatible

Download 1
Turbobit.net
Rapidgator.net
KatFile.com
UploadRar.com
Download 2
Turbobit.net
Rapidgator.net
KatFile.com
UploadRar.com

Tracklist:

1 - Let The Music Do The Talking - 3:49
2 - My Fist Your Face - 4:23
3 - Shame On You - 3:22
4 - The Reason A Dog - 4:14
5 - Shela - 4:26
6 - Gypsy Boots - 4:17
7 - She's On Fire - 3:48
8 - The Hop - 3:45
9 - Darkness - 3:44

EAC-Log, CUE-Sheed & NFO:

Click to open spoiler
Exact Audio Copy V1.0 beta 2 from 29. April 2011

Отчёт EAC об извлечении, выполненном 11. октября 2012, 0:01

Aerosmith / Done With Mirrors

Дисковод: MATSHITADVD-RAM UJ8A0AS Adapter: 0 ID: 1

Режим чтения : Достоверность
Использование точного потока : Да
Отключение кэша аудио : Да
Использование указателей C2 : Нет

Коррекция смещения при чтении : 102
Способность читать области Lead-in и Lead-out : Нет
Заполнение пропущенных сэмплов тишиной : Да
Удаление блоков с тишиной в начале и конце : Нет
При вычислениях CRC использовались нулевые сэмплы : Да
Интерфейс : Встроенный Win32-интерфейс для Win NT/2000

Выходной формат : Пользовательский кодировщик
Выбранный битрейт : 128 kBit/s
Качество : Высокий
Добавление ID3-тега : Нет
Утилита сжатия : C:\Program Files (x86)\Exact Audio Copy\Flac\flac.exe
Дополнительные параметры : -V -8 -T “Date=%year%” -T “Genre=%genre%” %source%

TOC извлечённого CD

Трек | Старт | Длительность | Начальный сектор | Конечный сектор
———————————————————————
1 | 0:00.37 | 3:49.38 | 37 | 17249
2 | 3:50.00 | 4:23.10 | 17250 | 36984
3 | 8:13.10 | 3:22.05 | 36985 | 52139
4 | 11:35.15 | 4:13.55 | 52140 | 71169
5 | 15:48.70 | 4:25.47 | 71170 | 91091
6 | 20:14.42 | 4:16.65 | 91092 | 110356
7 | 24:31.32 | 3:47.53 | 110357 | 127434
8 | 28:19.10 | 3:45.30 | 127435 | 144339
9 | 32:04.40 | 3:44.30 | 144340 | 161169

Характеристики диапазона извлечения и сообщения об ошибках

Выбранный диапазон

Имя файла F:\Музыка\torrents\Aerosmith – Discography\Albums\Aerosmith (1985) – Done With Mirrors\Aerosmith – Done With Mirrors.wav

Пиковый уровень 100.0 %
Скорость извлечения 1.1 X
Качество диапазона 100.0 %
CRC теста 6FE98EC5
CRC копии 6FE98EC5
Копирование… OK

Ошибок не произошло

Конец отчёта

==== Контрольная сумма отчёта 4B96C42B75E4D540C01F5A4A78FE917F859178CAF6A37634F385BCB59C2A7AB7 ====

REM GENRE “Hard Rock”
REM DATE 1985
REM DISCID 73086409
REM COMMENT “ExactAudioCopy v1.0b2”
PERFORMER “Aerosmith”
TITLE “Done With Mirrors [Japan 9 24091-2]”
FILE “Aerosmith – Done With Mirrors.flac” WAVE
TRACK 01 AUDIO
TITLE “Let The Music Do The Talking”
PERFORMER “Aerosmith”
INDEX 00 00:00:00
INDEX 01 00:00:37
TRACK 02 AUDIO
TITLE “My Fist Your Face”
PERFORMER “Aerosmith”
INDEX 00 03:47:23
INDEX 01 03:50:00
TRACK 03 AUDIO
TITLE “Shame On You”
PERFORMER “Aerosmith”
INDEX 00 08:11:35
INDEX 01 08:13:10
TRACK 04 AUDIO
TITLE “The Reason A Dog”
PERFORMER “Aerosmith”
INDEX 00 11:33:13
INDEX 01 11:35:15
TRACK 05 AUDIO
TITLE “Shela”
PERFORMER “Aerosmith”
INDEX 00 15:47:53
INDEX 01 15:48:70
TRACK 06 AUDIO
TITLE “Gypsy Boots”
PERFORMER “Aerosmith”
INDEX 00 20:12:60
INDEX 01 20:14:42
TRACK 07 AUDIO
TITLE “She’s On Fire”
PERFORMER “Aerosmith”
INDEX 00 24:29:30
INDEX 01 24:31:32
TRACK 08 AUDIO
TITLE “The Hop”
PERFORMER “Aerosmith”
INDEX 00 28:16:73
INDEX 01 28:19:10
TRACK 09 AUDIO
TITLE “Darkness”
PERFORMER “Aerosmith”
INDEX 00 31:59:73
INDEX 01 32:04:40


Leave a Reply

Your email address will not be published. Required fields are marked *

This site uses Akismet to reduce spam. Learn how your comment data is processed.