Aerosmith – Devil’s Got A New Disguise (The Very Best Of Aerosmith)




No Cover available

Artist: Aerosmith
Year: 2006
Genre: Rock
Notes: Discogs
Add. Notes:
Watch Songs on: YouTube
Cover incl.: Yes
Encoder: FLAC
Bitrate: ~1000 kBit/s (44.1 kHz/16 Bit/s)
Log & Cue incl.: Yes
Size: 642,9 MB
Password: “slam” (without ” “)


All Downloads/Hosters are compatible

Download 1
KatFile.com
Turbobit.net
Rapidgator.net
Download 2
KatFile.com
Turbobit.net
Rapidgator.net

Tracklist:

1. Dude (Looks Like A Lady)  4:22
2. Love In An Elevator  5:22
3. Livin' On The Edge (AOR Video Edit)  5:08
4. Walk This Way  3:41
5. Cryin'  5:10
6. Jaded  3:35
7. Crazy (LP Edit)  4:04
8. Angel  5:06
9. Janie's Got A Gun (CHR Remix)  4:32
10. Amazing / Who Threw The Whiskey In The Well 
 5:57
11. The Other Side  4:06
12. Dream On  4:26
13. Sweet Emotion  3:12
14. Falling In Love (Is Hard On The Knees)  3:25
15. Pink  3:55
16. I Don't Want To Miss A Thing (Pop Mix)  4:28
17. Sedona Sunrise  4:18
18. Devil's Got A New Disguise  4:27

EAC-Log, CUE-Sheed & NFO:

Click to open spoiler
Exact Audio Copy V1.0 beta 3 from 29. August 2011

EAC extraction logfile from 24. September 2013, 2:08

Aerosmith / Devil’s Got A New Disguise: The Very Best Of Aerosmith

Used drive : Optiarc DVD-ROM DDU1675S Adapter: 3 ID: 0

Read mode : Secure
Utilize accurate stream : Yes
Defeat audio cache : Yes
Make use of C2 pointers : No

Read offset correction : 6
Overread into Lead-In and Lead-Out : No
Fill up missing offset samples with silence : Yes
Delete leading and trailing silent blocks : No
Null samples used in CRC calculations : Yes
Used interface : Native Win32 interface for Win NT & 2000

Used output format : User Defined Encoder
Selected bitrate : 1024 kBit/s
Quality : High
Add ID3 tag : No
Command line compressor : C:\Program Files (x86)\Exact Audio Copy\Flac\flac.exe
Additional command line options : -V -8 -T “Date=%year%” -T “Genre=%genre%” %source%

TOC of the extracted CD

Track | Start | Length | Start sector | End sector
———————————————————
1 | 0:00.00 | 4:22.16 | 0 | 19665
2 | 4:22.16 | 5:22.29 | 19666 | 43844
3 | 9:44.45 | 5:06.66 | 43845 | 66860
4 | 14:51.36 | 3:41.11 | 66861 | 83446
5 | 18:32.47 | 5:09.31 | 83447 | 106652
6 | 23:42.03 | 3:35.32 | 106653 | 122809
7 | 27:17.35 | 4:04.72 | 122810 | 141181
8 | 31:22.32 | 5:06.00 | 141182 | 164131
9 | 36:28.32 | 4:32.46 | 164132 | 184577
10 | 41:01.03 | 5:57.24 | 184578 | 211376
11 | 46:58.27 | 4:06.70 | 211377 | 229896
12 | 51:05.22 | 4:26.42 | 229897 | 249888
13 | 55:31.64 | 3:12.69 | 249889 | 264357
14 | 58:44.58 | 3:25.38 | 264358 | 279770
15 | 62:10.21 | 3:55.74 | 279771 | 297469
16 | 66:06.20 | 4:28.52 | 297470 | 317621
17 | 70:34.72 | 4:18.13 | 317622 | 336984
18 | 74:53.10 | 4:27.14 | 336985 | 357023

Range status and errors

Selected range

Filename F:\Torrent\Aerosmith – Devil’s Got A New Disguise (The Very Best Of Aerosmith) (Sony BMG, 88697 00869 2) (2006)\Aerosmith – Devil’s Got A New Disguise (The Very Best Of Aerosmith).wav

Peak level 100.0 %
Extraction speed 9.6 X
Range quality 100.0 %
Test CRC 405B1DD8
Copy CRC 405B1DD8
Copy OK

No errors occurred

AccurateRip summary

Track 1 accurately ripped (confidence 37) [CDC05FB9] (AR v2)
Track 2 accurately ripped (confidence 37) [4E1FAC72] (AR v2)
Track 3 accurately ripped (confidence 37) [B364E7DA] (AR v2)
Track 4 accurately ripped (confidence 37) [F3B9ADAF] (AR v2)
Track 5 accurately ripped (confidence 37) [8F0886FB] (AR v2)
Track 6 accurately ripped (confidence 37) [DDE1E82A] (AR v2)
Track 7 accurately ripped (confidence 37) [FC28DEDE] (AR v2)
Track 8 accurately ripped (confidence 37) [65AFDC4E] (AR v2)
Track 9 accurately ripped (confidence 37) [AD031764] (AR v2)
Track 10 accurately ripped (confidence 37) [9EF19092] (AR v2)
Track 11 accurately ripped (confidence 36) [02E894C2] (AR v2)
Track 12 accurately ripped (confidence 38) [EF142713] (AR v2)
Track 13 accurately ripped (confidence 37) [A13CD68C] (AR v2)
Track 14 accurately ripped (confidence 37) [4B168E2C] (AR v2)
Track 15 accurately ripped (confidence 37) [94756E66] (AR v2)
Track 16 accurately ripped (confidence 38) [28DBDAEB] (AR v2)
Track 17 accurately ripped (confidence 38) [8037CFF3] (AR v2)
Track 18 accurately ripped (confidence 37) [F6F2BBD2] (AR v2)

All tracks accurately ripped

End of status report

—- CUETools DB Plugin V2.1.4

[CTDB TOCID: xPHM_JOBh2hMRZvCA8KNDPbpV6M-] found
Submit result: xPHM_JOBh2hMRZvCA8KNDPbpV6M- has been confirmed
Track | CTDB Status
1 | (53/53) Accurately ripped
2 | (53/53) Accurately ripped
3 | (53/53) Accurately ripped
4 | (53/53) Accurately ripped
5 | (53/53) Accurately ripped
6 | (53/53) Accurately ripped
7 | (53/53) Accurately ripped
8 | (53/53) Accurately ripped
9 | (53/53) Accurately ripped
10 | (53/53) Accurately ripped
11 | (53/53) Accurately ripped
12 | (53/53) Accurately ripped
13 | (53/53) Accurately ripped
14 | (53/53) Accurately ripped
15 | (52/53) Accurately ripped
16 | (52/53) Accurately ripped
17 | (51/53) Accurately ripped
18 | (50/53) Accurately ripped

==== Log checksum 8619CE97A456E2D7A20BB5F4A0D51BF8952121A9398C87CAAEB9F9142913E792 ====

REM GENRE “Hard Rock”
REM DATE 2006
REM DISCID 11129812
REM COMMENT “ExactAudioCopy v1.0b3”
PERFORMER “Aerosmith”
TITLE “Devil’s Got A New Disguise: The Very Best Of Aerosmith [E.U. 88697 00869 2]”
FILE “Aerosmith – Devil’s Got A New Disguise (The Very Best Of Aerosmith).flac” WAVE
TRACK 01 AUDIO
TITLE “Dude (Looks Like A Lady)”
PERFORMER “Aerosmith”
INDEX 01 00:00:00
TRACK 02 AUDIO
TITLE “Love In An Elevator”
PERFORMER “Aerosmith”
INDEX 00 04:21:33
INDEX 01 04:22:16
TRACK 03 AUDIO
TITLE “Livin’ On The Edge”
PERFORMER “Aerosmith”
INDEX 00 09:43:40
INDEX 01 09:44:45
TRACK 04 AUDIO
TITLE “Walk This Way”
PERFORMER “Aerosmith”
INDEX 00 14:50:07
INDEX 01 14:51:36
TRACK 05 AUDIO
TITLE “Cryin'”
PERFORMER “Aerosmith”
INDEX 01 18:32:47
TRACK 06 AUDIO
TITLE “Jaded”
PERFORMER “Aerosmith”
INDEX 00 23:41:07
INDEX 01 23:42:03
TRACK 07 AUDIO
TITLE “Crazy”
PERFORMER “Aerosmith”
INDEX 00 27:16:10
INDEX 01 27:17:35
TRACK 08 AUDIO
TITLE “Angel”
PERFORMER “Aerosmith”
INDEX 01 31:22:32
TRACK 09 AUDIO
TITLE “Janie’s Got A Gun”
PERFORMER “Aerosmith”
INDEX 01 36:28:32
TRACK 10 AUDIO
TITLE “Amazing”
PERFORMER “Aerosmith”
INDEX 01 41:01:03
TRACK 11 AUDIO
TITLE “The Other Side”
PERFORMER “Aerosmith”
INDEX 00 46:58:02
INDEX 01 46:58:27
TRACK 12 AUDIO
TITLE “Dream On”
PERFORMER “Aerosmith”
INDEX 00 51:04:45
INDEX 01 51:05:22
TRACK 13 AUDIO
TITLE “Sweet Emotion”
PERFORMER “Aerosmith”
INDEX 01 55:31:64
TRACK 14 AUDIO
TITLE “Falling In Love (Is Hard On The Knees)”
PERFORMER “Aerosmith”
INDEX 00 58:44:10
INDEX 01 58:44:58
TRACK 15 AUDIO
TITLE “Pink”
PERFORMER “Aerosmith”
INDEX 01 62:10:21
TRACK 16 AUDIO
TITLE “I Don’t Want To Miss A Thing”
PERFORMER “Aerosmith”
INDEX 00 66:05:49
INDEX 01 66:06:20
TRACK 17 AUDIO
TITLE “Sedona Sunrise”
PERFORMER “Aerosmith”
INDEX 00 70:34:18
INDEX 01 70:34:72
TRACK 18 AUDIO
TITLE “Devil’s Got A New Disguise”
PERFORMER “Aerosmith”
INDEX 00 74:51:34
INDEX 01 74:53:10


Leave a Reply

Your email address will not be published. Required fields are marked *

This site uses Akismet to reduce spam. Learn how your comment data is processed.