Aerosmith – Classics Live!




Artist: Aerosmith
Year: 1986
Genre: Rock
Notes: Discogs
Add. Notes:
Cover incl.: Yes
Encoder: FLAC
Bitrate: ~900 kBit/s (44.1 kHz/16 Bit/s)
Log & Cue incl.: Yes
Size: 282,98 MB
Password: “slam” (without ” “)


All Downloads/Hosters are compatible

Download 1
Turbobit.net
Rapidgator.net
UploadEver.com
KatFile.com
UsersDrive.com
Download 2
Turbobit.net
Rapidgator.net
UploadEver.com
KatFile.com
UsersDrive.com
Download 3
Turbobit.net
Rapidgator.net
UploadEver.com
KatFile.com
UsersDrive.com

Tracklist:

1 - Train Kept A Rollin' - 3:18
2 - Kings And Queens - 4:39
3 - Sweet Emotion - 5:00
4 - Dream On - 5:02
5 - Mama Kin - 3:43
6 - Three Mile Smile / Reefer Head Woman - 4:55
7 - Lord Of The Thighs - 6:42
8 - Major Barbara - 4:01

EAC-Log, CUE-Sheed & NFO:

Click to open spoiler
Exact Audio Copy V1.0 beta 2 from 29. April 2011

Отчёт EAC об извлечении, выполненном 18. мая 2013, 4:05

Aerosmith / Classics Live!

Дисковод: MATSHITADVD-RAM UJ8A0AS Adapter: 1 ID: 0

Режим чтения : Достоверность
Использование точного потока : Да
Отключение кэша аудио : Да
Использование указателей C2 : Нет

Коррекция смещения при чтении : 102
Способность читать области Lead-in и Lead-out : Нет
Заполнение пропущенных сэмплов тишиной : Да
Удаление блоков с тишиной в начале и конце : Нет
При вычислениях CRC использовались нулевые сэмплы : Да
Интерфейс : Встроенный Win32-интерфейс для Win NT/2000

Выходной формат : Пользовательский кодировщик
Выбранный битрейт : 128 kBit/s
Качество : Высокий
Добавление ID3-тега : Нет
Утилита сжатия : C:\Program Files (x86)\Exact Audio Copy\Flac\flac.exe
Дополнительные параметры : -V -8 -T “Date=%year%” -T “Genre=%genre%” %source%

TOC извлечённого CD

Трек | Старт | Длительность | Начальный сектор | Конечный сектор
———————————————————————
1 | 0:00.00 | 3:23.10 | 0 | 15234
2 | 3:23.10 | 4:53.62 | 15235 | 37271
3 | 8:16.72 | 5:08.53 | 37272 | 60424
4 | 13:25.50 | 5:02.62 | 60425 | 83136
5 | 18:28.37 | 3:45.45 | 83137 | 100056
6 | 22:14.07 | 4:54.73 | 100057 | 122179
7 | 27:09.05 | 7:03.35 | 122180 | 153939
8 | 34:12.40 | 4:01.42 | 153940 | 172056

Характеристики диапазона извлечения и сообщения об ошибках

Выбранный диапазон

Имя файла D:\Музыка\torrents\Aerosmith – Discography\Lives\Aerosmith – Classics Live!\Aerosmith – Classics Live!.wav

Пиковый уровень 100.0 %
Скорость извлечения 1.1 X
Качество диапазона 99.9 %
CRC теста 060A23DF
CRC копии 060A23DF
Копирование… OK

Ошибок не произошло

Конец отчёта

==== Контрольная сумма отчёта 4282DBA690EC09D4995D64E374CBC91CFA0504E28FAA3D19641375271FD1FF5F ====

REM GENRE “Hard Rock”
REM DATE 1986
REM DISCID 5308F608
REM COMMENT “ExactAudioCopy v1.0b2”
PERFORMER “Aerosmith”
TITLE “Classics Live! [USA CK 40329]”
FILE “Aerosmith – Classics Live!.flac” WAVE
TRACK 01 AUDIO
TITLE “Train Kept A Rollin'”
PERFORMER “Aerosmith”
INDEX 01 00:00:00
TRACK 02 AUDIO
TITLE “Kings And Queens”
PERFORMER “Aerosmith”
INDEX 00 03:19:37
INDEX 01 03:23:10
TRACK 03 AUDIO
TITLE “Sweet Emotion”
PERFORMER “Aerosmith”
INDEX 00 08:04:22
INDEX 01 08:16:72
TRACK 04 AUDIO
TITLE “Dream On”
PERFORMER “Aerosmith”
INDEX 00 13:17:12
INDEX 01 13:25:50
TRACK 05 AUDIO
TITLE “Mama Kin”
PERFORMER “Aerosmith”
INDEX 01 18:28:37
TRACK 06 AUDIO
TITLE “Three Mile Smile/Reefer Head Woman”
PERFORMER “Aerosmith”
INDEX 00 22:12:20
INDEX 01 22:14:07
TRACK 07 AUDIO
TITLE “Lord Of The Thighs”
PERFORMER “Aerosmith”
INDEX 01 27:09:05
TRACK 08 AUDIO
TITLE “Major Barbra”
PERFORMER “Aerosmith”
INDEX 00 33:51:40
INDEX 01 34:12:40


Leave a Reply

Your email address will not be published. Required fields are marked *

This site uses Akismet to reduce spam. Learn how your comment data is processed.