Aerosmith – Big Ones




Artist: Aerosmith
Year: 1994
Genre: Rock
Notes: Discogs
Add. Notes:
Cover incl.: Yes
Encoder: FLAC
Bitrate: ~1000 kBit/s (44.1 kHz/16 Bit/s)
Log & Cue incl.: Yes
Size: 609,79 MB
Password: “slam” (without ” “)


All Downloads/Hosters are compatible

Download 1
Turbobit.net
Rapidgator.net
UploadEver.com
KatFile.com
UsersDrive.com
Download 2
Turbobit.net
Rapidgator.net
UploadEver.com
KatFile.com
UsersDrive.com
Download 3
Turbobit.net
Rapidgator.net
UploadEver.com
KatFile.com
UsersDrive.com

Tracklist:

1 - Walk On Water - 4:54
2 - Love In An Elevator - 5:22
3 - Rag Doll - 4:24
4 - What It Takes - 5:10
5 - Dude (Looks Like A Lady) - 4:23
6 - Janie's Got A Gun - 5:29
7 - Cryin' - 5:07
8 - Amazing - 5:55
9 - Blind Man - 3:57
10 - Deuces Are Wild - 3:33
11 - The Other Side - 4:03
12 - Crazy - 5:14
13 - Eat The Rich - 4:09
14 - Angel - 5:04
15 - Livin' On The Edge - 6:20

EAC-Log, CUE-Sheed & NFO:

Click to open spoiler
Exact Audio Copy V1.0 beta 2 from 29. April 2011

Отчёт EAC об извлечении, выполненном 20. августа 2013, 12:36

Aerosmith / Big Ones

Дисковод: MATSHITADVD-RAM UJ8A0AS Adapter: 1 ID: 0

Режим чтения : Достоверность
Использование точного потока : Да
Отключение кэша аудио : Да
Использование указателей C2 : Нет

Коррекция смещения при чтении : 102
Способность читать области Lead-in и Lead-out : Нет
Заполнение пропущенных сэмплов тишиной : Да
Удаление блоков с тишиной в начале и конце : Нет
При вычислениях CRC использовались нулевые сэмплы : Да
Интерфейс : Встроенный Win32-интерфейс для Win NT/2000

Выходной формат : Пользовательский кодировщик
Выбранный битрейт : 128 kBit/s
Качество : Высокий
Добавление ID3-тега : Нет
Утилита сжатия : C:\Program Files\foobar2000\encoders\flac.exe
Дополнительные параметры : -V -8 -T “Date=%year%” -T “Genre=%genre%” %source%

TOC извлечённого CD

Трек | Старт | Длительность | Начальный сектор | Конечный сектор
———————————————————————
1 | 0:00.00 | 4:55.45 | 0 | 22169
2 | 4:55.45 | 5:21.55 | 22170 | 46299
3 | 10:17.25 | 4:24.45 | 46300 | 66144
4 | 14:41.70 | 5:10.40 | 66145 | 89434
5 | 19:52.35 | 4:24.58 | 89435 | 109292
6 | 24:17.18 | 5:30.47 | 109293 | 134089
7 | 29:47.65 | 5:09.13 | 134090 | 157277
8 | 34:57.03 | 5:56.32 | 157278 | 184009
9 | 40:53.35 | 4:00.48 | 184010 | 202057
10 | 44:54.08 | 3:35.57 | 202058 | 218239
11 | 48:29.65 | 4:04.23 | 218240 | 236562
12 | 52:34.13 | 5:16.42 | 236563 | 260304
13 | 57:50.55 | 4:10.70 | 260305 | 279124
14 | 62:01.50 | 5:07.40 | 279125 | 302189
15 | 67:09.15 | 6:21.10 | 302190 | 330774

Характеристики диапазона извлечения и сообщения об ошибках

Выбранный диапазон

Имя файла E:\Музыка\torrents\Aerosmith – Discography\Compilations\Aerosmith (1994) – Big Ones [GEFD-24716]\Aerosmith – Big Ones.wav

Пиковый уровень 100.0 %
Скорость извлечения 1.2 X
Качество диапазона 100.0 %
CRC теста ED8531D7
CRC копии ED8531D7
Копирование… OK

Ошибок не произошло

Конец отчёта

==== Контрольная сумма отчёта 2ADCA14309B067E0CDE2E78FD14181AAA4D7E3B06B94BA3D992528980C5567FD ====

REM GENRE “Hard Rock”
REM DATE 1994
REM DISCID F0113A0F
REM COMMENT “ExactAudioCopy v1.0b2”
PERFORMER “Aerosmith”
TITLE “Big Ones [USA GEFD-24716]”
FILE “Aerosmith – Big Ones.flac” WAVE
TRACK 01 AUDIO
TITLE “Walk On Water”
PERFORMER “Aerosmith”
INDEX 01 00:00:00
TRACK 02 AUDIO
TITLE “Love In An Elevator”
PERFORMER “Aerosmith”
INDEX 01 04:55:45
TRACK 03 AUDIO
TITLE “Rag Doll”
PERFORMER “Aerosmith”
INDEX 00 10:16:68
INDEX 01 10:17:25
TRACK 04 AUDIO
TITLE “What It Takes”
PERFORMER “Aerosmith”
INDEX 01 14:41:70
TRACK 05 AUDIO
TITLE “Dude (Looks Like A Lady)”
PERFORMER “Aerosmith”
INDEX 01 19:52:35
TRACK 06 AUDIO
TITLE “Janie’s Got A Gun”
PERFORMER “Aerosmith”
INDEX 00 24:17:08
INDEX 01 24:17:18
TRACK 07 AUDIO
TITLE “Cryin'”
PERFORMER “Aerosmith”
INDEX 01 29:47:65
TRACK 08 AUDIO
TITLE “Amazing”
PERFORMER “Aerosmith”
INDEX 01 34:57:03
TRACK 09 AUDIO
TITLE “Blind Man”
PERFORMER “Aerosmith”
INDEX 00 40:53:25
INDEX 01 40:53:35
TRACK 10 AUDIO
TITLE “Deuces Are Wild”
PERFORMER “Aerosmith”
INDEX 01 44:54:08
TRACK 11 AUDIO
TITLE “The Other Side”
PERFORMER “Aerosmith”
INDEX 00 48:29:58
INDEX 01 48:29:65
TRACK 12 AUDIO
TITLE “Crazy”
PERFORMER “Aerosmith”
INDEX 00 52:34:08
INDEX 01 52:34:13
TRACK 13 AUDIO
TITLE “Eat The Rich”
PERFORMER “Aerosmith”
INDEX 00 57:50:38
INDEX 01 57:50:55
TRACK 14 AUDIO
TITLE “Angel”
PERFORMER “Aerosmith”
INDEX 01 62:01:50
TRACK 15 AUDIO
TITLE “Livin’ On The Edge”
PERFORMER “Aerosmith”
INDEX 01 67:09:15

Leave a Reply

Your email address will not be published. Required fields are marked *

This site uses Akismet to reduce spam. Learn how your comment data is processed.