Aerosmith – Best Ballads




Artist: Aerosmith
Year: 1996
Genre: Rock
Notes: Discogs
Add. Notes:
Encoder: FLAC
Bitrate: ~1000 kBit/s (44.1 kHz/16 Bit/s)
Size: 493,34 MB
Password: “slam” (without ” “)


Crypted via FileCrypt.cc:

.

Crypted via Relink.to:

Tracklist:

1 - Crazy - 5:17
2 - What It Takes - 5:14
3 - Seasons Of Winter - 5:07
4 - Cryin' - 5:11
5 - The Reason a Dog - 4:16
6 - Blind Man - 4:02
7 - Deuces Are Wild - 3:38
8 - Dream On - 4:27
9 - Amazing - 5:59
10 - Angel - 5:05
11 - Don't Get Mad, Get Even - 4:53
12 - All Your Love - 5:31
13 - Janie's Got a Gun - 5:25
14 - Major Barbra - 4:04
15 - You See Me Crying - 5:11

EAC-Log, CUE-Sheed & NFO:

Click to open spoiler
Exact Audio Copy V1.0 beta 2 from 29. April 2011

EAC extraction logfile from 26. September 2011, 18:54

Aerosmith / Best Ballads

Used drive : SONY DVD RW DW-D18A Adapter: 4 ID: 0

Read mode : Secure
Utilize accurate stream : Yes
Defeat audio cache : Yes
Make use of C2 pointers : No

Read offset correction : 12
Overread into Lead-In and Lead-Out : No
Fill up missing offset samples with silence : Yes
Delete leading and trailing silent blocks : No
Null samples used in CRC calculations : Yes
Used interface : Native Win32 interface for Win NT & 2000
Gap handling : Appended to previous track

Used output format : User Defined Encoder
Selected bitrate : 768 kBit/s
Quality : High
Add ID3 tag : No
Command line compressor : C:\Program Files\Exact Audio Copy\FLAC\FLAC.EXE
Additional command line options : -8 -V -T “ARTIST=%artist%” -T “TITLE=%title%” -T “ALBUM=%albumtitle%” -T “DATE=%year%” -T “TRACKNUMBER=%tracknr%” -T “GENRE=%genre%” -T “PERFORMER=%albuminterpret%” -T “COMPOSER=%composer%” %haslyrics%–tag-from-file=LYRICS

TOC of the extracted CD

Track | Start | Length | Start sector | End sector
———————————————————
1 | 0:00.00 | 5:17.20 | 0 | 23794
2 | 5:17.20 | 5:14.17 | 23795 | 47361
3 | 10:31.37 | 5:07.68 | 47362 | 70454
4 | 15:39.30 | 5:11.32 | 70455 | 93811
5 | 20:50.62 | 4:16.10 | 93812 | 113021
6 | 25:06.72 | 4:02.50 | 113022 | 131221
7 | 29:09.47 | 3:38.30 | 131222 | 147601
8 | 32:48.02 | 4:27.33 | 147602 | 167659
9 | 37:15.35 | 5:59.20 | 167660 | 194604
10 | 43:14.55 | 5:05.00 | 194605 | 217479
11 | 48:19.55 | 4:53.20 | 217480 | 239474
12 | 53:13.00 | 5:31.00 | 239475 | 264299
13 | 58:44.00 | 5:25.25 | 264300 | 288699
14 | 64:09.25 | 4:04.30 | 288700 | 307029
15 | 68:13.55 | 5:11.45 | 307030 | 330399

Track 1

Filename G:\EAC Rips\01 – Crazy.wav

Pre-gap length 0:00:02.00

Peak level 84.9 %
Extraction speed 4.3 X
Track quality 100.0 %
Test CRC 5A804D36
Copy CRC 5A804D36
Accurately ripped (confidence 4) [63775264] (AR v1)
Copy OK

Track 2

Filename G:\EAC Rips\02 – What ItTakes.wav

Pre-gap length 0:00:01.45

Peak level 95.7 %
Extraction speed 4.6 X
Track quality 100.0 %
Test CRC 8EA0D037
Copy CRC 8EA0D037
Accurately ripped (confidence 4) [9C6A658D] (AR v1)
Copy OK

Track 3

Filename G:\EAC Rips\03 – Seasons Of Winter.wav

Pre-gap length 0:00:02.25

Peak level 93.4 %
Extraction speed 5.0 X
Track quality 100.0 %
Test CRC DA0BCD73
Copy CRC DA0BCD73
Accurately ripped (confidence 3) [5C52F43A] (AR v1)
Copy OK

Track 4

Filename G:\EAC Rips\04 – Cryin’.wav

Pre-gap length 0:00:01.43

Peak level 80.6 %
Extraction speed 5.1 X
Track quality 99.9 %
Test CRC 5B571B2E
Copy CRC 5B571B2E
Accurately ripped (confidence 4) [1E0D852A] (AR v1)
Copy OK

Track 5

Filename G:\EAC Rips\05 – The Reason a Dog.wav

Pre-gap length 0:00:02.37

Peak level 87.5 %
Extraction speed 5.5 X
Track quality 100.0 %
Test CRC 82E18BE5
Copy CRC 82E18BE5
Accurately ripped (confidence 4) [1AA5532D] (AR v1)
Copy OK

Track 6

Filename G:\EAC Rips\06 – Blind Man.wav

Pre-gap length 0:00:03.17

Peak level 83.7 %
Extraction speed 5.4 X
Track quality 99.9 %
Test CRC FF3F7DFF
Copy CRC FF3F7DFF
Accurately ripped (confidence 4) [1D0A04C7] (AR v1)
Copy OK

Track 7

Filename G:\EAC Rips\07 – Deuces Are Wild.wav

Pre-gap length 0:00:01.47

Peak level 89.9 %
Extraction speed 6.2 X
Track quality 100.0 %
Test CRC 9131E9B8
Copy CRC 9131E9B8
Accurately ripped (confidence 4) [653523C9] (AR v1)
Copy OK

Track 8

Filename G:\EAC Rips\08 – Dream On.wav

Pre-gap length 0:00:03.02

Peak level 91.8 %
Extraction speed 6.3 X
Track quality 100.0 %
Test CRC 8136CD4F
Copy CRC 8136CD4F
Accurately ripped (confidence 3) [73DBE23F] (AR v1)
Copy OK

Track 9

Filename G:\EAC Rips\09 – Amazing.wav

Pre-gap length 0:00:01.48

Peak level 76.2 %
Extraction speed 6.5 X
Track quality 100.0 %
Test CRC 8AE84DAF
Copy CRC 8AE84DAF
Accurately ripped (confidence 4) [6EEA99BF] (AR v1)
Copy OK

Track 10

Filename G:\EAC Rips\10 – Angel.wav

Pre-gap length 0:00:02.43

Peak level 90.8 %
Extraction speed 6.8 X
Track quality 100.0 %
Test CRC 3C6F1CBE
Copy CRC 3C6F1CBE
Accurately ripped (confidence 4) [44448F36] (AR v1)
Copy OK

Track 11

Filename G:\EAC Rips\11 – Don’t Get Mad, Get Even.wav

Pre-gap length 0:00:01.55

Peak level 85.3 %
Extraction speed 7.1 X
Track quality 100.0 %
Test CRC 8FFD5D8F
Copy CRC 8FFD5D8F
Accurately ripped (confidence 4) [9F1C2596] (AR v1)
Copy OK

Track 12

Filename G:\EAC Rips\12 – All Your Love.wav

Pre-gap length 0:00:03.00

Peak level 76.0 %
Extraction speed 6.4 X
Track quality 99.9 %
Test CRC 7AEBAD37
Copy CRC 7AEBAD37
Accurately ripped (confidence 3) [B5A4A4AC] (AR v1)
Copy OK

Track 13

Filename G:\EAC Rips\13 – Janie’s Got a Gun.wav

Pre-gap length 0:00:02.50

Peak level 78.6 %
Extraction speed 6.6 X
Track quality 99.9 %
Test CRC 857816BB
Copy CRC 857816BB
Accurately ripped (confidence 4) [BD673592] (AR v1)
Copy OK

Track 14

Filename G:\EAC Rips\14 – Major Barbra.wav

Pre-gap length 0:00:01.13

Peak level 86.6 %
Extraction speed 7.5 X
Track quality 100.0 %
Test CRC 0B3344EB
Copy CRC 0B3344EB
Accurately ripped (confidence 4) [564D55CD] (AR v1)
Copy OK

Track 15

Filename G:\EAC Rips\15 – You See Me Crying.wav

Pre-gap length 0:00:02.68

Peak level 78.6 %
Extraction speed 6.2 X
Track quality 100.0 %
Test CRC 9B7A2504
Copy CRC 9B7A2504
Accurately ripped (confidence 4) [65C4DAEE] (AR v1)
Copy OK

All tracks accurately ripped

No errors occurred

End of status report

==== Log checksum 959BCFD25F6CE827C98BCB524C359B9C3891E75210252A82AC29A6862043F610 ====

REM GENRE Rock
REM DATE 1996
REM DISCID D511350F
REM COMMENT “ExactAudioCopy v1.0b2”
PERFORMER “Aerosmith”
TITLE “Best Ballads”
FILE “01 – Crazy.wav” WAVE
TRACK 01 AUDIO
TITLE “Crazy”
PERFORMER “Aerosmith”
INDEX 01 00:00:00
TRACK 02 AUDIO
TITLE “What ItTakes”
PERFORMER “Aerosmith”
INDEX 00 05:15:50
FILE “02 – What ItTakes.wav” WAVE
INDEX 01 00:00:00
TRACK 03 AUDIO
TITLE “Seasons Of Winter”
PERFORMER “Aerosmith”
INDEX 00 05:11:67
FILE “03 – Seasons Of Winter.wav” WAVE
INDEX 01 00:00:00
TRACK 04 AUDIO
TITLE “Cryin'”
PERFORMER “Aerosmith”
INDEX 00 05:06:25
FILE “04 – Cryin’.wav” WAVE
INDEX 01 00:00:00
TRACK 05 AUDIO
TITLE “The Reason a Dog”
PERFORMER “Aerosmith”
INDEX 00 05:08:70
FILE “05 – The Reason a Dog.wav” WAVE
INDEX 01 00:00:00
TRACK 06 AUDIO
TITLE “Blind Man”
PERFORMER “Aerosmith”
INDEX 00 04:12:68
FILE “06 – Blind Man.wav” WAVE
INDEX 01 00:00:00
TRACK 07 AUDIO
TITLE “Deuces Are Wild”
PERFORMER “Aerosmith”
INDEX 00 04:01:03
FILE “07 – Deuces Are Wild.wav” WAVE
INDEX 01 00:00:00
TRACK 08 AUDIO
TITLE “Dream On”
PERFORMER “Aerosmith”
INDEX 00 03:35:28
FILE “08 – Dream On.wav” WAVE
INDEX 01 00:00:00
TRACK 09 AUDIO
TITLE “Amazing”
PERFORMER “Aerosmith”
INDEX 00 04:25:60
FILE “09 – Amazing.wav” WAVE
INDEX 01 00:00:00
TRACK 10 AUDIO
TITLE “Angel”
PERFORMER “Aerosmith”
INDEX 00 05:56:52
FILE “10 – Angel.wav” WAVE
INDEX 01 00:00:00
TRACK 11 AUDIO
TITLE “Don’t Get Mad, Get Even”
PERFORMER “Aerosmith”
INDEX 00 05:03:20
FILE “11 – Don’t Get Mad, Get Even.wav” WAVE
INDEX 01 00:00:00
TRACK 12 AUDIO
TITLE “All Your Love”
PERFORMER “Aerosmith”
INDEX 00 04:50:20
FILE “12 – All Your Love.wav” WAVE
INDEX 01 00:00:00
TRACK 13 AUDIO
TITLE “Janie’s Got a Gun”
PERFORMER “Aerosmith”
INDEX 00 05:28:25
FILE “13 – Janie’s Got a Gun.wav” WAVE
INDEX 01 00:00:00
TRACK 14 AUDIO
TITLE “Major Barbra”
PERFORMER “Aerosmith”
INDEX 00 05:24:12
FILE “14 – Major Barbra.wav” WAVE
INDEX 01 00:00:00
TRACK 15 AUDIO
TITLE “You See Me Crying”
PERFORMER “Aerosmith”
INDEX 00 04:01:37
FILE “15 – You See Me Crying.wav” WAVE
INDEX 01 00:00:00

Leave a Reply

Your email address will not be published. Required fields are marked *

This site uses Akismet to reduce spam. Learn how your comment data is processed.