Aerosmith – Aerosmith




Artist: Aerosmith
Year: 1973/1988
Genre: Rock
Notes: Discogs
Add. Notes:
Cover incl.: Yes
Encoder: FLAC
Bitrate: ~800 kBit/s (44.1 kHz/16 Bit/s)
Log & Cue incl.: Yes
Size: 240,42 MB
Password: “slam” (without ” “)


All Downloads/Hosters are compatible

Download 1
Turbobit.net
Rapidgator.net
UploadByte.com
UploadEver.com
JustUpload.io
Download 2
Turbobit.net
Rapidgator.net
UploadByte.com
UploadEver.com
JustUpload.io
Download 3
Turbobit.net
Rapidgator.net
UploadByte.com
UploadEver.com
JustUpload.io

Tracklist:

1 - Make It - 3:40
2 - Somebody - 3:45
3 - Dream On - 4:28
4 - One Way Street - 7:02
5 - Mama Kin - 4:29
6 - Write Me A Letter - 4:12
7 - Movin' Out - 5:02
8 - Walkin' The Dog - 3:13

EAC-Log, CUE-Sheed & NFO:

Click to open spoiler
Exact Audio Copy V1.0 beta 2 from 29. April 2011

Отчёт EAC об извлечении, выполненном 12. сентября 2012, 23:04

Aerosmith / Aerosmith

Дисковод: MATSHITADVD-RAM UJ8A0AS Adapter: 0 ID: 1

Режим чтения : Достоверность
Использование точного потока : Да
Отключение кэша аудио : Да
Использование указателей C2 : Нет

Коррекция смещения при чтении : 102
Способность читать области Lead-in и Lead-out : Нет
Заполнение пропущенных сэмплов тишиной : Да
Удаление блоков с тишиной в начале и конце : Нет
При вычислениях CRC использовались нулевые сэмплы : Да
Интерфейс : Встроенный Win32-интерфейс для Win NT/2000

Выходной формат : Пользовательский кодировщик
Выбранный битрейт : 128 kBit/s
Качество : Высокий
Добавление ID3-тега : Нет
Утилита сжатия : C:\Program Files (x86)\Exact Audio Copy\Flac\flac.exe
Дополнительные параметры : -V -8 -T “Date=%year%” -T “Genre=%genre%” %source%

TOC извлечённого CD

Трек | Старт | Длительность | Начальный сектор | Конечный сектор
———————————————————————
1 | 0:00.00 | 3:39.28 | 0 | 16452
2 | 3:39.28 | 3:45.22 | 16453 | 33349
3 | 7:24.50 | 4:25.43 | 33350 | 53267
4 | 11:50.18 | 7:00.67 | 53268 | 84834
5 | 18:51.10 | 4:25.13 | 84835 | 104722
6 | 23:16.23 | 4:10.12 | 104723 | 123484
7 | 27:26.35 | 5:01.63 | 123485 | 146122
8 | 32:28.23 | 3:11.07 | 146123 | 160454

Характеристики диапазона извлечения и сообщения об ошибках

Выбранный диапазон

Имя файла F:\Музыка\torrents\Aerosmith – Discography\Albums\Aerosmith (1973) – Aerosmith\Aerosmith – Aerosmith.wav

Пиковый уровень 89.8 %
Скорость извлечения 1.1 X
Качество диапазона 99.9 %
CRC теста 6840F4AE
CRC копии 6840F4AE
Копирование… OK

Ошибок не произошло

Конец отчёта

==== Контрольная сумма отчёта 4E24814783D335B01DC415A13B57B8916D8A13771CEE113F78C14050DD9329A0 ====

REM GENRE “Hard Rock”
REM DATE 1973
REM DISCID 5E085B08
REM COMMENT “ExactAudioCopy v1.0b2”
PERFORMER “Aerosmith”
TITLE “Aerosmith [USA CK 32005]”
FILE “Aerosmith – Aerosmith.flac” WAVE
TRACK 01 AUDIO
TITLE “Make It”
PERFORMER “Aerosmith”
INDEX 01 00:00:00
TRACK 02 AUDIO
TITLE “Somebody”
PERFORMER “Aerosmith”
INDEX 00 03:38:18
INDEX 01 03:39:28
TRACK 03 AUDIO
TITLE “Dream On”
PERFORMER “Aerosmith”
INDEX 00 07:23:30
INDEX 01 07:24:50
TRACK 04 AUDIO
TITLE “One Way Street”
PERFORMER “Aerosmith”
INDEX 00 11:49:35
INDEX 01 11:50:18
TRACK 05 AUDIO
TITLE “Mama Kin”
PERFORMER “Aerosmith”
INDEX 00 18:50:10
INDEX 01 18:51:10
TRACK 06 AUDIO
TITLE “Write Me A Letter”
PERFORMER “Aerosmith”
INDEX 00 23:15:35
INDEX 01 23:16:23
TRACK 07 AUDIO
TITLE “Movin’ Out”
PERFORMER “Aerosmith”
INDEX 00 27:25:45
INDEX 01 27:26:35
TRACK 08 AUDIO
TITLE “Walkin’ The Dog”
PERFORMER “Aerosmith”
INDEX 01 32:28:23

Leave a Reply

Your email address will not be published. Required fields are marked *

This site uses Akismet to reduce spam. Learn how your comment data is processed.