Aerosmith – Aerosmith (Japanese Edition)




Artist: Aerosmith
Year: 1973/1987
Genre: Rock
Notes: Discogs
Add. Notes: Japanese Edition
Cover incl.: Yes
Encoder: FLAC
Bitrate: ~800 kBit/s (44.1 kHz/16 Bit/s)
Log & Cue incl.: Yes
Size: 252,45 MB
Password: “slam” (without ” “)


All Downloads/Hosters are compatible

Download 1
Turbobit.net
Rapidgator.net
KatFile.com
UploadRar.com
Download 2
Turbobit.net
Rapidgator.net
KatFile.com
UploadRar.com
Download 3
Turbobit.net
Rapidgator.net
KatFile.com
UploadRar.com

Tracklist:

1 - Make It - 3:45
2 - Somebody - 3:45
3 - Dream On - 4:28
4 - One Way Street - 7:12
5 - Mama Kin - 4:25
6 - Write Me - 4:11
7 - Movin' Out - 5:03
8 - Walkin' The Dog - 3:12

EAC-Log, CUE-Sheed & NFO:

Click to open spoiler
Exact Audio Copy V1.0 beta 2 from 29. April 2011

Отчёт EAC об извлечении, выполненном 3. мая 2013, 21:09

Aerosmith / Aerosmith

Дисковод: MATSHITADVD-RAM UJ8A0AS Adapter: 1 ID: 0

Режим чтения : Достоверность
Использование точного потока : Да
Отключение кэша аудио : Да
Использование указателей C2 : Нет

Коррекция смещения при чтении : 102
Способность читать области Lead-in и Lead-out : Нет
Заполнение пропущенных сэмплов тишиной : Да
Удаление блоков с тишиной в начале и конце : Нет
При вычислениях CRC использовались нулевые сэмплы : Да
Интерфейс : Встроенный Win32-интерфейс для Win NT/2000

Выходной формат : Пользовательский кодировщик
Выбранный битрейт : 128 kBit/s
Качество : Высокий
Добавление ID3-тега : Нет
Утилита сжатия : C:\Program Files (x86)\Exact Audio Copy\Flac\flac.exe
Дополнительные параметры : -V -8 -T “Date=%year%” -T “Genre=%genre%” %source%

TOC извлечённого CD

Трек | Старт | Длительность | Начальный сектор | Конечный сектор
———————————————————————
1 | 0:00.00 | 3:39.00 | 0 | 16424
2 | 3:39.00 | 3:45.22 | 16425 | 33321
3 | 7:24.22 | 4:25.43 | 33322 | 53239
4 | 11:49.65 | 7:00.67 | 53240 | 84806
5 | 18:50.57 | 4:25.13 | 84807 | 104694
6 | 23:15.70 | 4:10.10 | 104695 | 123454
7 | 27:26.05 | 5:02.15 | 123455 | 146119
8 | 32:28.20 | 3:11.50 | 146120 | 160494

Характеристики диапазона извлечения и сообщения об ошибках

Выбранный диапазон

Имя файла D:\Музыка\torrents\Aerosmith – Discography\Albums\Aerosmith (1973) – Aerosmith [Japan 28DP-1067]\Aerosmith – Aerosmith.wav

Пиковый уровень 89.8 %
Скорость извлечения 1.1 X
Качество диапазона 100.0 %
CRC теста 17125E70
CRC копии 17125E70
Копирование… OK

Ошибок не произошло

Конец отчёта

==== Контрольная сумма отчёта 1C6176E5A7B50E193E16DF09F5C461C8CF6464F642A4C571C504CD51272672C7 ====

REM GENRE Hard Rock
REM DATE 1973
REM DISCID 5B085B08
REM COMMENT “ExactAudioCopy v1.0b2”
PERFORMER “Aerosmith”
TITLE “Aerosmith [Japan 28DP-1067]”
FILE “Aerosmith – Aerosmith.flac” WAVE
TRACK 01 AUDIO
TITLE “Make It”
PERFORMER “Aerosmith”
INDEX 01 00:00:00
TRACK 02 AUDIO
TITLE “Somebody”
PERFORMER “Aerosmith”
INDEX 01 03:39:00
TRACK 03 AUDIO
TITLE “Dream On”
PERFORMER “Aerosmith”
INDEX 01 07:24:22
TRACK 04 AUDIO
TITLE “One Way Street”
PERFORMER “Aerosmith”
INDEX 01 11:49:65
TRACK 05 AUDIO
TITLE “Mama Kin”
PERFORMER “Aerosmith”
INDEX 01 18:50:57
TRACK 06 AUDIO
TITLE “Write Me”
PERFORMER “Aerosmith”
INDEX 01 23:15:70
TRACK 07 AUDIO
TITLE “Movin’ Out”
PERFORMER “Aerosmith”
INDEX 01 27:26:05
TRACK 08 AUDIO
TITLE “Walkin’ The Dog”
PERFORMER “Aerosmith”
INDEX 01 32:28:20


Leave a Reply

Your email address will not be published. Required fields are marked *

This site uses Akismet to reduce spam. Learn how your comment data is processed.