Aerosmith – A Little South of Sanity (Limited Edition)




Artist: Aerosmith
Year: 1998
Genre: Rock
Notes: Discogs
Add. Notes: Limited Edition
Cover incl.: Yes
Encoder: FLAC
Bitrate: ~1000 kBit/s (44.1 kHz/16 Bit/s)
Log & Cue incl.: Yes
Size: 841,2 MB
Password: “slam” (without ” “)


All Downloads/Hosters are compatible

Download 1
Turbobit.net
Rapidgator.net
UploadEver.com
KatFile.com
UsersDrive.com
Download 2
Turbobit.net
Rapidgator.net
UploadEver.com
KatFile.com
UsersDrive.com
Download 3
Turbobit.net
Rapidgator.net
UploadEver.com
KatFile.com
UsersDrive.com

Tracklist:

1-01 - Eat The Rich - 5:14
1-02 - Love In An Elevator - 5:56
1-03 - Falling In Love (Is Hard On The Knees) - 3:20
1-04 - Same Old Song And Dance - 5:58
1-05 - Hole In My Soul - 5:40
1-06 - Monkey On My Back - 4:08
1-07 - Livin' On The Edge - 5:24
1-08 - Cryin' - 5:11
1-09 - Rag Doll - 4:14
1-10 - Angel - 5:35
1-11 - Janie's Got A Gun - 5:07
1-12 - Amazing - 5:23
2-01 - Back In The Saddle - 6:11
2-02 - Last Child - 5:05
2-03 - The Other Side - 4:40
2-04 - Walk On Down - 3:41
2-05 - Dream On - 4:51
2-06 - Crazy - 5:45
2-07 - Mama Kin - 4:12
2-08 - Walk This Way - 4:08
2-09 - Dude (Looks Like A Lady) - 4:22
2-10 - What It Takes - 5:15
2-11 - Sweet Emotion - 5:57

EAC-Log, CUE-Sheed & NFO:

Click to open spoiler
Exact Audio Copy V1.0 beta 2 from 29. April 2011

Отчёт EAC об извлечении, выполненном 20. августа 2013, 14:23

Aerosmith / A Little South of Sanity (CD1)

Дисковод: MATSHITADVD-RAM UJ8A0AS Adapter: 1 ID: 0

Режим чтения : Достоверность
Использование точного потока : Да
Отключение кэша аудио : Да
Использование указателей C2 : Нет

Коррекция смещения при чтении : 102
Способность читать области Lead-in и Lead-out : Нет
Заполнение пропущенных сэмплов тишиной : Да
Удаление блоков с тишиной в начале и конце : Нет
При вычислениях CRC использовались нулевые сэмплы : Да
Интерфейс : Встроенный Win32-интерфейс для Win NT/2000

Выходной формат : Пользовательский кодировщик
Выбранный битрейт : 128 kBit/s
Качество : Высокий
Добавление ID3-тега : Нет
Утилита сжатия : C:\Program Files\foobar2000\encoders\flac.exe
Дополнительные параметры : -V -8 -T “Date=%year%” -T “Genre=%genre%” %source%

TOC извлечённого CD

Трек | Старт | Длительность | Начальный сектор | Конечный сектор
———————————————————————
1 | 0:00.00 | 5:14.22 | 0 | 23571
2 | 5:14.22 | 5:55.50 | 23572 | 50246
3 | 11:09.72 | 3:34.20 | 50247 | 66316
4 | 14:44.17 | 5:57.43 | 66317 | 93134
5 | 20:41.60 | 5:40.15 | 93135 | 118649
6 | 26:22.00 | 4:08.35 | 118650 | 137284
7 | 30:30.35 | 5:24.07 | 137285 | 161591
8 | 35:54.42 | 5:10.65 | 161592 | 184906
9 | 41:05.32 | 4:13.43 | 184907 | 203924
10 | 45:19.00 | 5:35.27 | 203925 | 229076
11 | 50:54.27 | 5:14.23 | 229077 | 252649
12 | 56:08.50 | 5:23.10 | 252650 | 276884

Характеристики диапазона извлечения и сообщения об ошибках

Выбранный диапазон

Имя файла E:\Музыка\torrents\Aerosmith – Discography\Lives\Aerosmith (1998) – A Little South of Sanity\CD 1\Aerosmith – A Little South of Sanity (CD1).wav

Пиковый уровень 99.9 %
Скорость извлечения 1.2 X
Качество диапазона 100.0 %
CRC теста B060D7E2
CRC копии B060D7E2
Копирование… OK

Ошибок не произошло

Конец отчёта

==== Контрольная сумма отчёта 90D4B5C06AD4980D333A302FB25E5A887A7D0A8591E1303EB9CC21345C74EA03 ====

Exact Audio Copy V1.0 beta 2 from 29. April 2011

Отчёт EAC об извлечении, выполненном 20. августа 2013, 20:24

Aerosmith / A Little South of Sanity (CD2)

Дисковод: MATSHITADVD-RAM UJ8A0AS Adapter: 1 ID: 0

Режим чтения : Достоверность
Использование точного потока : Да
Отключение кэша аудио : Да
Использование указателей C2 : Нет

Коррекция смещения при чтении : 102
Способность читать области Lead-in и Lead-out : Нет
Заполнение пропущенных сэмплов тишиной : Да
Удаление блоков с тишиной в начале и конце : Нет
При вычислениях CRC использовались нулевые сэмплы : Да
Интерфейс : Встроенный Win32-интерфейс для Win NT/2000

Выходной формат : Пользовательский кодировщик
Выбранный битрейт : 128 kBit/s
Качество : Высокий
Добавление ID3-тега : Нет
Утилита сжатия : C:\Program Files\foobar2000\encoders\flac.exe
Дополнительные параметры : -V -8 -T “Date=%year%” -T “Genre=%genre%” %source%

TOC извлечённого CD

Трек | Старт | Длительность | Начальный сектор | Конечный сектор
———————————————————————
1 | 0:00.00 | 6:10.60 | 0 | 27809
2 | 6:10.60 | 5:04.57 | 27810 | 50666
3 | 11:15.42 | 4:40.25 | 50667 | 71691
4 | 15:55.67 | 3:40.73 | 71692 | 88264
5 | 19:36.65 | 4:50.65 | 88265 | 110079
6 | 24:27.55 | 5:44.52 | 110080 | 135931
7 | 30:12.32 | 4:12.00 | 135932 | 154831
8 | 34:24.32 | 4:12.08 | 154832 | 173739
9 | 38:36.40 | 4:21.67 | 173740 | 193381
10 | 42:58.32 | 5:15.13 | 193382 | 217019
11 | 48:13.45 | 5:57.10 | 217020 | 243804

Характеристики диапазона извлечения и сообщения об ошибках

Выбранный диапазон

Имя файла E:\Музыка\torrents\Aerosmith – Discography\Lives\Aerosmith (1998) – A Little South of Sanity [USA GEFD2-25314 ]\CD 2\Aerosmith – A Little South of Sanity (CD2).wav

Пиковый уровень 99.9 %
Скорость извлечения 1.2 X
Качество диапазона 100.0 %
CRC теста 02FFBF2D
CRC копии 02FFBF2D
Копирование… OK

Ошибок не произошло

Конец отчёта

==== Контрольная сумма отчёта 9D310E51520E87F89CA6C39A15C5266EB0DBB4CA058C5C29A487B5606E634A69 ====

REM GENRE “Hard Rock”
REM DATE 1998
REM DISCID A20E6B0C
REM COMMENT “ExactAudioCopy v1.0b2”
PERFORMER “Aerosmith”
TITLE “A Little South of Sanity [USA GEFD2-25314] (CD1)”
FILE “Aerosmith – A Little South of Sanity (CD1).flac” WAVE
TRACK 01 AUDIO
TITLE “Eat The Rich”
PERFORMER “Aerosmith”
ISRC USGF19822101
INDEX 01 00:00:00
TRACK 02 AUDIO
TITLE “Love In An Elevator”
PERFORMER “Aerosmith”
ISRC USGF19822102
INDEX 01 05:14:22
TRACK 03 AUDIO
TITLE “Falling In Love (Is Hard On The Knees)”
PERFORMER “Aerosmith”
ISRC USGF19822103
INDEX 01 11:09:72
TRACK 04 AUDIO
TITLE “Same Old Song And Dance”
PERFORMER “Aerosmith”
ISRC USGF19822104
INDEX 00 14:30:12
INDEX 01 14:44:17
TRACK 05 AUDIO
TITLE “Hole In My Soul”
PERFORMER “Aerosmith”
ISRC USGF19822105
INDEX 01 20:41:60
TRACK 06 AUDIO
TITLE “Monkey On My Back”
PERFORMER “Aerosmith”
ISRC USGF19822106
INDEX 01 26:22:00
TRACK 07 AUDIO
TITLE “Livin’ On The Edge”
PERFORMER “Aerosmith”
ISRC USGF19822107
INDEX 01 30:30:35
TRACK 08 AUDIO
TITLE “Cryin'”
PERFORMER “Aerosmith”
ISRC USGF19822108
INDEX 01 35:54:42
TRACK 09 AUDIO
TITLE “Rag Doll”
PERFORMER “Aerosmith”
ISRC USGF19822109
INDEX 01 41:05:32
TRACK 10 AUDIO
TITLE “Angel”
PERFORMER “Aerosmith”
ISRC USGF19822110
INDEX 01 45:19:00
TRACK 11 AUDIO
TITLE “Janie’s Got A Gun”
PERFORMER “Aerosmith”
ISRC USGF19822111
INDEX 01 50:54:27
TRACK 12 AUDIO
TITLE “Amazing”
PERFORMER “Aerosmith”
ISRC USGF19822112
INDEX 00 56:01:42
INDEX 01 56:08:50

REM GENRE “Hard Rock”
REM DATE 1998
REM DISCID AD0CB20B
REM COMMENT “ExactAudioCopy v1.0b2”
PERFORMER “Aerosmith”
TITLE “A Little South of Sanity [USA GEFD2-25314] (CD2)”
FILE “Aerosmith – A Little South of Sanity (CD2).flac” WAVE
TRACK 01 AUDIO
TITLE “Back in the Saddle”
PERFORMER “Aerosmith”
ISRC USGF19822113
INDEX 01 00:00:00
TRACK 02 AUDIO
TITLE “Last Child”
PERFORMER “Aerosmith”
ISRC USGF19822114
INDEX 01 06:10:60
TRACK 03 AUDIO
TITLE “The Other Side”
PERFORMER “Aerosmith”
ISRC USGF19822115
INDEX 01 11:15:42
TRACK 04 AUDIO
TITLE “Walk On Down”
PERFORMER “Aerosmith”
ISRC USGF19822116
INDEX 01 15:55:67
TRACK 05 AUDIO
TITLE “Dream On”
PERFORMER “Aerosmith”
ISRC USGF19822117
INDEX 01 19:36:65
TRACK 06 AUDIO
TITLE “Crazy”
PERFORMER “Aerosmith”
ISRC USGF19822118
INDEX 01 24:27:55
TRACK 07 AUDIO
TITLE “Mama Kin”
PERFORMER “Aerosmith”
ISRC USGF19822119
INDEX 01 30:12:32
TRACK 08 AUDIO
TITLE “Walk This Way”
PERFORMER “Aerosmith”
ISRC USGF19822120
INDEX 01 34:24:32
TRACK 09 AUDIO
TITLE “Dude (Looks Like a Lady)”
PERFORMER “Aerosmith”
ISRC USGF19822121
INDEX 00 38:32:35
INDEX 01 38:36:40
TRACK 10 AUDIO
TITLE “What It Takes”
PERFORMER “Aerosmith”
ISRC USGF19822122
INDEX 01 42:58:32
TRACK 11 AUDIO
TITLE “Sweet Emotion”
PERFORMER “Aerosmith”
ISRC USGF19822123
INDEX 01 48:13:45


Leave a Reply

Your email address will not be published. Required fields are marked *

This site uses Akismet to reduce spam. Learn how your comment data is processed.