ACDC – Who Made Who (Remastered)




Artist: ACDC
Year: 1986/1995
Genre: Rock
Notes: Discogs
Add. Notes: Remastered
Encoder: FLAC
Bitrate: ~900 kBit/s (44.1 kHz/16 Bit/s)
Size: 307,87 MB
Password: “slam” (without ” “)


http://www.share-online.biz/dl/NPVRLCRPGM9
https://rapidgator.net/file/73e0736c3b0d89b8ce3e0dd1ad53f821
https://ayefiles.com/i6yw1onbyb2o/ACD-1986-WhMaWh.rar.html
https://hitfile.net/uioAJmT

Tracklist:

1 - Who Made Who - 3:26
2 - You Shook Me All Night Long - 3:29
3 - D.T. - 2:59
4 - Sink The Pink - 4:12
5 - Ride On - 5:47
6 - Hells Bells - 5:10
7 - Shake Your Foundations - 4:08
8 - Chase The Ace - 3:00
9 - For Those About To Rock (We Salute You) - 5:44

EAC-Log, CUE-Sheed & NFO:

Click to open spoiler
Exact Audio Copy V0.99 prebeta 5 from 4. May 2009

EAC Auslese-Logdatei vom 14. Juni 2010, 17:31

AC/DC / Who Made Who

Benutztes Laufwerk : HL-DT-STDVD-ROM GDR-H30N Adapter: 0 ID: 1

Lesemodus : Sicher
Benutze Accurate Stream : Ja
Audio Puffer abgeschaltet : Ja
Benutze C2 Fehlerinformationen : Nein

Leseoffset Korrektur : 6
Überlesen in das Lead-In und Lead-Out : Nein
Fülle fehlende Offsetsample mit Stille auf : Ja
Lösche führende und nachfolgende stille Blöcke : Nein
Null Samples gehen in CRC Berechnungen ein : Ja
Benutzte Schnittstelle : Installierte externe ASPI Schnittstelle

Benutztes Ausgabeformat : Interne WAV Routinen
Sampleformat : 44.100 Hz; 16 Bit; Stereo

TOC der ausgelesenen CD

Track | Start | Länge | Startsektor | Endsektor
——————————————————-
1 | 0:00.00 | 3:27.25 | 0 | 15549
2 | 3:27.25 | 3:31.02 | 15550 | 31376
3 | 6:58.27 | 2:53.50 | 31377 | 44401
4 | 9:52.02 | 4:13.28 | 44402 | 63404
5 | 14:05.30 | 5:50.70 | 63405 | 89724
6 | 19:56.25 | 5:13.05 | 89725 | 113204
7 | 25:09.30 | 3:52.62 | 113205 | 130666
8 | 29:02.17 | 3:01.43 | 130667 | 144284
9 | 32:03.60 | 5:45.35 | 144285 | 170194

Bereichsstatus und Fehler

Gewählter Bereich

Dateiname K:\Audi\ACDC\1995 Australian Edition\1986 – Who Made Who\AC DC – Who Made Who.wav

Spitzenpegel 94.7 %
Bereichsqualität 100.0 %
Kopie CRC CBC35E7B
Kopie OK

Keine Fehler aufgetreten

AccurateRip Übersicht

Track 1 akkurat gelesen (Zuversicht 4) [149FCC24]
Track 2 akkurat gelesen (Zuversicht 4) [800DD746]
Track 3 akkurat gelesen (Zuversicht 4) [AE2E0917]
Track 4 akkurat gelesen (Zuversicht 4) [DE773766]
Track 5 akkurat gelesen (Zuversicht 3) [1CBA3367]
Track 6 akkurat gelesen (Zuversicht 4) [8387C8A1]
Track 7 akkurat gelesen (Zuversicht 4) [C9752787]
Track 8 akkurat gelesen (Zuversicht 4) [12CB9F52]
Track 9 akkurat gelesen (Zuversicht 4) [E90AA3D1]

Alle Tracks wurden akkurat gelesen

Ende des Statusreports

REM GENRE “Hard Rock”
REM DATE 2002
REM DISCID 7408DD09
REM COMMENT “ExactAudioCopy v0.99pb5”
PERFORMER “AC/DC”
TITLE “Who Made Who”
FILE “AC DC – Who Made Who.flac” WAVE
TRACK 01 AUDIO
TITLE “Who Made Who”
PERFORMER “AC/DC”
INDEX 01 00:00:00
TRACK 02 AUDIO
TITLE “You Shook Me All Night Long”
PERFORMER “AC/DC”
INDEX 01 03:27:25
TRACK 03 AUDIO
TITLE “D.T.”
PERFORMER “AC/DC”
INDEX 01 06:58:27
TRACK 04 AUDIO
TITLE “Sink The Pink”
PERFORMER “AC/DC”
INDEX 01 09:52:02
TRACK 05 AUDIO
TITLE “Ride On”
PERFORMER “AC/DC”
INDEX 01 14:05:30
TRACK 06 AUDIO
TITLE “Hells Bells”
PERFORMER “AC/DC”
INDEX 00 19:54:55
INDEX 01 19:56:25
TRACK 07 AUDIO
TITLE “Shake Your Foundations”
PERFORMER “AC/DC”
INDEX 01 25:09:30
TRACK 08 AUDIO
TITLE “Chase The Ace”
PERFORMER “AC/DC”
INDEX 00 29:00:65
INDEX 01 29:02:17
TRACK 09 AUDIO
TITLE “For Those About To Rock (We Salute You)”
PERFORMER “AC/DC”
INDEX 01 32:03:60

Leave a Reply

Your email address will not be published. Required fields are marked *

Enter the text from the image below
 

This site uses Akismet to reduce spam. Learn how your comment data is processed.