ACDC – T.N.T. (Australien Remastered Edition)




Artist: AC/DC
Year: 1975/1995
Genre: Rock
Notes: Discogs
Add. Notes: Australien Remastered Edition
Cover incl.: Yes
Encoder: FLAC
Bitrate: ~900 kBit/s (44.1 kHz/16 Bit/s)
Bin/Cue incl.: Yes
Size: 325,01 MB
Password: “slam” (without ” “)


http://www.share-online.biz/dl/BSLTNYRPB6

https://rapidgator.net/file/ed53692914101dc2b5de1676145bfe33

https://uploadbyte.com/s4n7nyghhq5y

https://uploadever.com/d029s400fc2d

https://justupload.io/7yc5z5gk01ye

Tracklist:

1 - It's A Long Way To The Top - 5:15
2 - Rock 'N' Roll Singer - 5:04
3 - The Jack - 5:52
4 - Live Wire - 5:49
5 - T.N.T. - 3:35
6 - Rocker - 2:51
7 - Can I Sit Next To You Girl - 4:12
8 - High Voltage - 4:22
9 - School Days - 5:21

EAC-Log, CUE-Sheed & NFO:

Click to open spoiler
Exact Audio Copy V0.99 prebeta 5 from 4. May 2009

EAC Auslese-Logdatei vom 11. Juni 2010, 18:16

ACDC / T.N.T. (australian remaster)

Benutztes Laufwerk : HL-DT-STDVD-ROM GDR-H30N Adapter: 0 ID: 1

Lesemodus : Sicher
Benutze Accurate Stream : Ja
Audio Puffer abgeschaltet : Ja
Benutze C2 Fehlerinformationen : Nein

Leseoffset Korrektur : 6
Überlesen in das Lead-In und Lead-Out : Nein
Fülle fehlende Offsetsample mit Stille auf : Ja
Lösche führende und nachfolgende stille Blöcke : Nein
Null Samples gehen in CRC Berechnungen ein : Ja
Benutzte Schnittstelle : Installierte externe ASPI Schnittstelle

Benutztes Ausgabeformat : Interne WAV Routinen
Sampleformat : 44.100 Hz; 16 Bit; Stereo

TOC der ausgelesenen CD

Track | Start | Länge | Startsektor | Endsektor
——————————————————-
1 | 0:00.00 | 5:15.50 | 0 | 23674
2 | 5:15.50 | 5:04.00 | 23675 | 46474
3 | 10:19.50 | 5:51.62 | 46475 | 72861
4 | 16:11.37 | 5:50.00 | 72862 | 99111
5 | 22:01.37 | 3:34.38 | 99112 | 115199
6 | 25:36.00 | 2:49.50 | 115200 | 127924
7 | 28:25.50 | 4:11.62 | 127925 | 146811
8 | 32:37.37 | 4:02.25 | 146812 | 164986
9 | 36:39.62 | 5:23.13 | 164987 | 189224

Bereichsstatus und Fehler

Gewählter Bereich

Dateiname K:\Audi\ACDC\1995 Australian Edition\1975 – T.N.T\ACDC – T.N.T. (australian remaster).wav

Spitzenpegel 100.0 %
Bereichsqualität 100.0 %
Kopie CRC 2BD6BA8A
Kopie OK

Keine Fehler aufgetreten

AccurateRip Übersicht

Track 1 akkurat gelesen (Zuversicht 11) [905E1ABB]
Track 2 akkurat gelesen (Zuversicht 11) [6AED2DA6]
Track 3 akkurat gelesen (Zuversicht 10) [BAA30969]
Track 4 akkurat gelesen (Zuversicht 11) [3B0721AB]
Track 5 akkurat gelesen (Zuversicht 11) [97B7A667]
Track 6 akkurat gelesen (Zuversicht 11) [A5B807AD]
Track 7 akkurat gelesen (Zuversicht 11) [DC7AEE75]
Track 8 akkurat gelesen (Zuversicht 11) [F84F1783]
Track 9 akkurat gelesen (Zuversicht 10) [36245B4A]

Alle Tracks wurden akkurat gelesen

Ende des Statusreports

REM GENRE “Hard Rock”
REM DATE 1975
REM DISCID 6F09DB09
REM COMMENT “ExactAudioCopy v0.99pb5”
PERFORMER “ACDC”
TITLE “T.N.T. (australian remaster)”
FILE “ACDC – T.N.T. (australian remaster).flac” WAVE
TRACK 01 AUDIO
TITLE “It’s A Long Way To The Top (If You Wanna Rock ‘n’ Roll)”
PERFORMER “ACDC”
INDEX 01 00:00:00
TRACK 02 AUDIO
TITLE “Rock ‘N’ Roll Singer”
PERFORMER “ACDC”
INDEX 01 05:15:50
TRACK 03 AUDIO
TITLE “The Jack”
PERFORMER “ACDC”
INDEX 01 10:19:50
TRACK 04 AUDIO
TITLE “Live Wire”
PERFORMER “ACDC”
INDEX 01 16:11:37
TRACK 05 AUDIO
TITLE “T.N.T.”
PERFORMER “ACDC”
INDEX 01 22:01:37
TRACK 06 AUDIO
TITLE “Rocker”
PERFORMER “ACDC”
INDEX 01 25:36:00
TRACK 07 AUDIO
TITLE “Can I Sit Next To You Girl”
PERFORMER “ACDC”
INDEX 01 28:25:50
TRACK 08 AUDIO
TITLE “High Voltage”
PERFORMER “ACDC”
INDEX 01 32:37:37
TRACK 09 AUDIO
TITLE “School Days”
PERFORMER “ACDC”
INDEX 01 36:39:62

Leave a Reply

Your email address will not be published. Required fields are marked *

Enter the text from the image below
 

This site uses Akismet to reduce spam. Learn how your comment data is processed.