ACDC – Powerage (Remastered)




Artist: ACDC
Year: 1978/1995
Genre: Rock
Notes: Discogs
Add. Notes: Remastered
Encoder: FLAC
Bitrate: ~900 kBit/s (44.1 kHz/16 Bit/s)
Size: 339,93 MB
Password: “slam” (without ” “)


http://www.share-online.biz/dl/1HFNLCRPIP
https://rapidgator.net/file/7a16f3c643e9554e917155daefaa7096
https://ayefiles.com/50m3s7o8pd4z/ACD-1978-Po.rar.html
https://hitfile.net/WB7k6Hj

Tracklist:

1 - Rock 'N' Roll Damnation - 3:30
2 - Down Payment Blues - 6:20
3 - Gimme A Bullet - 3:00
4 - Riff Raff - 5:10
5 - Sin City - 5:40
6 - Next To The Moon - 3:15
7 - Gone Shootin' - 4:05
8 - Up To My Neck In You - 4:58
9 - Kicked In The Teeth - 3:45

EAC-Log, CUE-Sheed & NFO:

Click to open spoiler
Exact Audio Copy V0.99 prebeta 5 from 4. May 2009

EAC Auslese-Logdatei vom 14. Juni 2010, 16:29

AC-DC / Powerage

Benutztes Laufwerk : HL-DT-STDVD-ROM GDR-H30N Adapter: 0 ID: 1

Lesemodus : Sicher
Benutze Accurate Stream : Ja
Audio Puffer abgeschaltet : Ja
Benutze C2 Fehlerinformationen : Nein

Leseoffset Korrektur : 6
Überlesen in das Lead-In und Lead-Out : Nein
Fülle fehlende Offsetsample mit Stille auf : Ja
Lösche führende und nachfolgende stille Blöcke : Nein
Null Samples gehen in CRC Berechnungen ein : Ja
Benutzte Schnittstelle : Installierte externe ASPI Schnittstelle

Benutztes Ausgabeformat : Interne WAV Routinen
Sampleformat : 44.100 Hz; 16 Bit; Stereo

TOC der ausgelesenen CD

Track | Start | Länge | Startsektor | Endsektor
——————————————————-
1 | 0:00.00 | 3:37.12 | 0 | 16286
2 | 3:37.12 | 6:03.73 | 16287 | 43584
3 | 9:41.10 | 3:21.57 | 43585 | 58716
4 | 13:02.67 | 5:12.15 | 58717 | 82131
5 | 18:15.07 | 4:45.30 | 82132 | 103536
6 | 23:00.37 | 3:31.63 | 103537 | 119424
7 | 26:32.25 | 5:05.60 | 119425 | 142359
8 | 31:38.10 | 4:13.45 | 142360 | 161379
9 | 35:51.55 | 3:53.45 | 161380 | 178899

Bereichsstatus und Fehler

Gewählter Bereich

Dateiname K:\Audi\ACDC\1995 Australian Edition\1978 – Powerage\AC-DC – Powerage.wav

Spitzenpegel 100.0 %
Bereichsqualität 100.0 %
Kopie CRC 05B9A4A3
Kopie OK

Keine Fehler aufgetreten

AccurateRip Übersicht

Track 1 akkurat gelesen (Zuversicht 7) [D1CDA9FF]
Track 2 akkurat gelesen (Zuversicht 8) [445E54D9]
Track 3 akkurat gelesen (Zuversicht 7) [705A8F76]
Track 4 akkurat gelesen (Zuversicht 7) [1B18EFCB]
Track 5 akkurat gelesen (Zuversicht 7) [AA1C8C95]
Track 6 akkurat gelesen (Zuversicht 7) [33112C9E]
Track 7 akkurat gelesen (Zuversicht 6) [9CE67B90]
Track 8 akkurat gelesen (Zuversicht 7) [97AEED73]
Track 9 akkurat gelesen (Zuversicht 6) [12815CD9]

Alle Tracks wurden akkurat gelesen

Ende des Statusreports

REM GENRE “Hard Rock”
REM DATE 1978
REM DISCID 78095109
REM COMMENT “ExactAudioCopy v0.99pb5”
PERFORMER “AC-DC”
TITLE “Powerage”
FILE “AC-DC – Powerage.flac” WAVE
TRACK 01 AUDIO
TITLE “Rock ‘n’ Roll Damnation”
PERFORMER “AC-DC”
INDEX 01 00:00:00
TRACK 02 AUDIO
TITLE “Down Payment Blues”
PERFORMER “AC-DC”
INDEX 01 03:37:12
TRACK 03 AUDIO
TITLE “Gimme A Bullet”
PERFORMER “AC-DC”
INDEX 00 09:41:09
INDEX 01 09:41:10
TRACK 04 AUDIO
TITLE “Riff Raff”
PERFORMER “AC-DC”
INDEX 01 13:02:67
TRACK 05 AUDIO
TITLE “Sin City”
PERFORMER “AC-DC”
INDEX 00 18:15:06
INDEX 01 18:15:07
TRACK 06 AUDIO
TITLE “What’s Next To The Moon”
PERFORMER “AC-DC”
INDEX 01 23:00:37
TRACK 07 AUDIO
TITLE “Gone Shootin'”
PERFORMER “AC-DC”
INDEX 00 26:32:24
INDEX 01 26:32:25
TRACK 08 AUDIO
TITLE “Up To My Neck In You”
PERFORMER “AC-DC”
INDEX 00 31:38:09
INDEX 01 31:38:10
TRACK 09 AUDIO
TITLE “Kicked In The Teeth”
PERFORMER “AC-DC”
INDEX 00 35:51:54
INDEX 01 35:51:55

Leave a Reply

Your email address will not be published. Required fields are marked *

This site uses Akismet to reduce spam. Learn how your comment data is processed.