ACDC – Live




Artist: ACDC
Year: 1992
Genre: Rock
Notes: Discogs
Add. Notes:
Encoder: FLAC
Bitrate: ~900 kBit/s (44.1 kHz/16 Bit/s)
Size: 555,42 MB
Password: “slam” (without ” “)


http://www.share-online.biz/dl/FUKSLCRPGM
http://www.share-online.biz/dl/LV2TLCRPMRT
https://rapidgator.net/file/4f1002195dafea7c75fb99385a83be80
https://rapidgator.net/file/b95869895a02cfdee994687be7ceb021
https://ayefiles.com/g4oky7hyetx0/ACD-1992-Li.part1.rar.html
https://ayefiles.com/4nbrlrcx8s5r/ACD-1992-Li.part2.rar.html
https://hitfile.net/H7u4eAp
https://hitfile.net/RjpiHqQ

Tracklist:

1 - Thunderstruck - 6:34
2 - Shoot To Thrill - 5:23
3 - Back In Black - 4:28
4 - Who Made Who - 5:16
5 - Heatseeker - 3:37
6 - The Jack - 6:56
7 - Moneytalks - 4:21
8 - Hells Bells - 6:01
9 - Dirty Deeds Done Dirt Cheap - 5:02
10 - Whole Lotta Rosie - 4:30
11 - You Shook Me All Night Long - 3:54
12 - Highway To Hell - 3:58
13 - T.N.T. - 3:48
14 - For Those About To Rock (We Salute You) - 7:09

EAC-Log, CUE-Sheed & NFO:

Click to open spoiler
Exact Audio Copy V0.99 prebeta 4 from 23. January 2008

EAC extraction logfile from 18. April 2011, 16:36

AC-DC / Live (ATCO 92215-2)

Used drive : PLEXTOR DVDR PX-760A Adapter: 0 ID: 0

Read mode : Secure
Utilize accurate stream : Yes
Defeat audio cache : Yes
Make use of C2 pointers : No

Read offset correction : 30
Overread into Lead-In and Lead-Out : No
Fill up missing offset samples with silence : Yes
Delete leading and trailing silent blocks : No
Null samples used in CRC calculations : Yes
Used interface : Installed external ASPI interface

Used output format : Internal WAV Routines
Sample format : 44.100 Hz; 16 Bit; Stereo

TOC of the extracted CD

Track | Start | Length | Start sector | End sector
———————————————————
1 | 0:00.32 | 6:34.30 | 32 | 29611
2 | 6:34.62 | 5:23.20 | 29612 | 53856
3 | 11:58.07 | 4:28.08 | 53857 | 73964
4 | 16:26.15 | 5:16.10 | 73965 | 97674
5 | 21:42.25 | 3:36.72 | 97675 | 113946
6 | 25:19.22 | 6:57.73 | 113947 | 145294
7 | 32:17.20 | 4:19.20 | 145295 | 164739
8 | 36:36.40 | 6:01.07 | 164740 | 191821
9 | 42:37.47 | 5:02.58 | 191822 | 214529
10 | 47:40.30 | 4:30.60 | 214530 | 234839
11 | 52:11.15 | 3:54.55 | 234840 | 252444
12 | 56:05.70 | 3:59.07 | 252445 | 270376
13 | 60:05.02 | 3:47.53 | 270377 | 287454
14 | 63:52.55 | 7:07.55 | 287455 | 319534

Range status and errors

Selected range

Filename D:\bki71\AC-DC – Live (ATCO 92215-2).wav

Peak level 100.0 %
Range quality 100.0 %
Test CRC DC34C1F7
Copy CRC DC34C1F7
Copy OK

No errors occurred

AccurateRip summary

Track 1 accurately ripped (confidence 65) [2C22E5C8]
Track 2 accurately ripped (confidence 71) [3A2CC22C]
Track 3 accurately ripped (confidence 70) [0C92C631]
Track 4 accurately ripped (confidence 70) [867C575B]
Track 5 accurately ripped (confidence 67) [284F737F]
Track 6 accurately ripped (confidence 68) [80D83529]
Track 7 accurately ripped (confidence 68) [51AF66DD]
Track 8 accurately ripped (confidence 67) [CD295128]
Track 9 accurately ripped (confidence 66) [36087A4F]
Track 10 accurately ripped (confidence 65) [D3C1F366]
Track 11 accurately ripped (confidence 67) [59FEF76E]
Track 12 accurately ripped (confidence 67) [0CF9B286]
Track 13 accurately ripped (confidence 67) [C4649BDA]
Track 14 accurately ripped (confidence 59) [47684F24]

All tracks accurately ripped

End of status report

REM GENRE “Hard Rock”
REM DATE 1992
REM DISCID D710A40E
REM COMMENT “ExactAudioCopy v0.99pb4”
PERFORMER “AC-DC”
TITLE “Live (ATCO 92215-2)”
FILE “AC-DC – Live (ATCO 92215-2).flac” WAVE
TRACK 01 AUDIO
TITLE “Thunderstruck”
PERFORMER “AC-DC”
INDEX 00 00:00:00
INDEX 01 00:00:32
TRACK 02 AUDIO
TITLE “Shoot To Thrill”
PERFORMER “AC-DC”
INDEX 00 06:34:59
INDEX 01 06:34:62
TRACK 03 AUDIO
TITLE “Back In Black”
PERFORMER “AC-DC”
INDEX 00 11:56:09
INDEX 01 11:58:07
TRACK 04 AUDIO
TITLE “Who Made Who”
PERFORMER “AC-DC”
INDEX 00 16:25:14
INDEX 01 16:26:15
TRACK 05 AUDIO
TITLE “Heatseeker”
PERFORMER “AC-DC”
INDEX 00 21:42:12
INDEX 01 21:42:25
TRACK 06 AUDIO
TITLE “The Jack”
PERFORMER “AC-DC”
INDEX 00 25:18:27
INDEX 01 25:19:22
TRACK 07 AUDIO
TITLE “Moneytalks”
PERFORMER “AC-DC”
INDEX 00 32:16:27
INDEX 01 32:17:20
TRACK 08 AUDIO
TITLE “Hells Bells”
PERFORMER “AC-DC”
INDEX 00 36:35:69
INDEX 01 36:36:40
TRACK 09 AUDIO
TITLE “Dirty Deeds Done Dirt Cheap”
PERFORMER “AC-DC”
INDEX 00 42:36:67
INDEX 01 42:37:47
TRACK 10 AUDIO
TITLE “Whole Lotta Rosie”
PERFORMER “AC-DC”
INDEX 00 47:40:19
INDEX 01 47:40:30
TRACK 11 AUDIO
TITLE “You Shook Me All Night Long”
PERFORMER “AC-DC”
INDEX 00 52:10:22
INDEX 01 52:11:15
TRACK 12 AUDIO
TITLE “Highway To Hell”
PERFORMER “AC-DC”
INDEX 00 56:04:17
INDEX 01 56:05:70
TRACK 13 AUDIO
TITLE “T.N.T.”
PERFORMER “AC-DC”
INDEX 00 60:04:22
INDEX 01 60:05:02
TRACK 14 AUDIO
TITLE “For Those About To Rock (We Salute You)”
PERFORMER “AC-DC”
INDEX 00 63:52:52
INDEX 01 63:52:55

Leave a Reply

Your email address will not be published. Required fields are marked *

This site uses Akismet to reduce spam. Learn how your comment data is processed.