ACDC – Let There Be Rock (Remastered)




Artist: ACDC
Year: 1977/2002
Genre: Rock
Notes: Discogs
Add. Notes: Remastered
Encoder: FLAC
Bitrate: ~900 kBit/s (44.1 kHz/16 Bit/s)
Size: 302,86 MB
Password: “slam” (without ” “)


http://www.share-online.biz/dl/BVMMLCRPTRF
https://rapidgator.net/file/f1ff1e3339f32a8a2a17d1b4bc68c4a3
https://ayefiles.com/uqzjlah5wfd3/ACD-1977-LeThBeRo.rar.html
https://hitfile.net/I1bkwm9

Tracklist:

1 - Go Down - 5:31
2 - Dog Eat Dog - 3:35
3 - Let There Be Rock - 6:06
4 - Bad Boy Boogie - 4:27
5 - Problem Child - 5:24
6 - Overdose - 6:09
7 - Hell Ain't A Bad Place To Be - 4:14
8 - Whole Lotta Rosie - 5:23

EAC-Log, CUE-Sheed & NFO:

Click to open spoiler
Exact Audio Copy V1.0 beta 1 from 15. November 2010

EAC extraction logfile from 20. March 2011, 16:04

AC-DC / Let There Be Rock

Used drive : PLEXTOR CD-R PREMIUM Adapter: 1 ID: 0

Read mode : Secure
Utilize accurate stream : Yes
Defeat audio cache : Yes
Make use of C2 pointers : No

Read offset correction : 30
Overread into Lead-In and Lead-Out : No
Fill up missing offset samples with silence : Yes
Delete leading and trailing silent blocks : No
Null samples used in CRC calculations : Yes
Used interface : Native Win32 interface for Win NT & 2000

Used output format : User Defined Encoder
Selected bitrate : 1024 kBit/s
Quality : High
Add ID3 tag : No
Command line compressor : C:\!tools\wavpack.exe
Additional command line options : -hlm %s

TOC of the extracted CD

Track | Start | Length | Start sector | End sector
———————————————————
1 | 0:00.00 | 5:31.07 | 0 | 24831
2 | 5:31.07 | 3:35.08 | 24832 | 40964
3 | 9:06.15 | 6:06.42 | 40965 | 68456
4 | 15:12.57 | 4:27.48 | 68457 | 88529
5 | 19:40.30 | 5:24.72 | 88530 | 112901
6 | 25:05.27 | 6:09.18 | 112902 | 140594
7 | 31:14.45 | 4:14.22 | 140595 | 159666
8 | 35:28.67 | 5:23.50 | 159667 | 183941

Range status and errors

Selected range

Filename D:\CB_RAB\AC-DC – 1977 – Let There Be Rock\AC-DC – Let There Be Rock.wav

Peak level 100.0 %
Extraction speed 0.8 X
Range quality 100.0 %
Test CRC BB4DBDF3
Copy CRC BB4DBDF3
Copy OK

No errors occurred

AccurateRip summary

Track 1 accurately ripped (confidence 2) [FE6CEAE7]
Track 2 accurately ripped (confidence 2) [4029DCB9]
Track 3 accurately ripped (confidence 2) [D307DD0D]
Track 4 accurately ripped (confidence 2) [E662CAE9]
Track 5 accurately ripped (confidence 2) [775B848E]
Track 6 accurately ripped (confidence 2) [0E45608A]
Track 7 accurately ripped (confidence 2) [7ADF98E7]
Track 8 accurately ripped (confidence 70) [0C5BF16E]

All tracks accurately ripped

End of status report

==== Log checksum A7EDE0B01ED36F49B5EF29E237BE55CEDD62596FD3259BAF86F1D3073AE6B666 ====

REM GENRE “Hard Rock”
REM DATE 1977
REM DISCID 5F099408
REM COMMENT “ExactAudioCopy v1.0b1”
CATALOG 7567924450203
PERFORMER “AC/DC”
TITLE “Let There Be Rock”
FILE “AC-DC – 1977 – Let There Be Rock.flac” WAVE
TRACK 01 AUDIO
TITLE “Go Down”
PERFORMER “AC/DC”
INDEX 01 00:00:00
TRACK 02 AUDIO
TITLE “Dog Eat Dog”
PERFORMER “AC/DC”
INDEX 01 05:31:07
TRACK 03 AUDIO
TITLE “Let There Be Rock”
PERFORMER “AC/DC”
INDEX 00 09:06:02
INDEX 01 09:06:15
TRACK 04 AUDIO
TITLE “Bad Boy Boogie”
PERFORMER “AC/DC”
INDEX 00 15:12:40
INDEX 01 15:12:57
TRACK 05 AUDIO
TITLE “Problem Child”
PERFORMER “AC/DC”
INDEX 00 19:39:47
INDEX 01 19:40:30
TRACK 06 AUDIO
TITLE “Overdose”
PERFORMER “AC/DC”
INDEX 01 25:05:27
TRACK 07 AUDIO
TITLE “Hell Ain’t A Bad Place To Be”
PERFORMER “AC/DC”
INDEX 00 31:13:32
INDEX 01 31:14:45
TRACK 08 AUDIO
TITLE “Whole Lotta Rosie”
PERFORMER “AC/DC”
INDEX 00 35:28:22
INDEX 01 35:28:67

Leave a Reply

Your email address will not be published. Required fields are marked *

This site uses Akismet to reduce spam. Learn how your comment data is processed.