AC/DC – If You Want Blood You’ve Got It (Remastered)




No Cover available

Artist: AC/DC
Year: 1978/1994
Genre: Rock
Notes: Discogs
Add. Notes: Remastered
Watch Songs on: YouTube
Cover incl.: Yes
Encoder: FLAC
Bitrate: ~900 kBit/s (44.1 kHz/16 Bit/s)
Log & Cue incl.: Yes/Yes
Size: 458,2 MB
Password: “slam” (without ” “)


All Downloads/Hosters are compatible

Download 1
KatFile.com
Turbobit.net
FileFactory.com
Rapidgator.net
Download 2
KatFile.com
Turbobit.net
FileFactory.com
Rapidgator.net

Tracklist:

1 - Riff Raff - 5:10
2 - Hell Ain't A Bad Place To Be - 4:02
3 - Bad Boy Boogie - 7:35
4 - The Jack - 5:43
5 - Problem Child - 4:32
6 - Whole Lotta Rosie - 3:50
7 - Rock 'N' Roll Damnation - 3:30
8 - High Voltage - 6:00
9 - Let There Be Rock - 8:15
10 - Rocker - 3:00

EAC-Log, CUE-Sheed & NFO:

Click to open spoiler
Exact Audio Copy V0.99 prebeta 5 from 4. May 2009

EAC Auslese-Logdatei vom 31. Mai 2010, 21:10

AC-DC / If You Want Blood You’ve Got It

Benutztes Laufwerk : HL-DT-STDVD-ROM GDR-H30N Adapter: 0 ID: 1

Lesemodus : Sicher
Benutze Accurate Stream : Ja
Audio Puffer abgeschaltet : Ja
Benutze C2 Fehlerinformationen : Nein

Leseoffset Korrektur : 6
Überlesen in das Lead-In und Lead-Out : Nein
Fülle fehlende Offsetsample mit Stille auf : Ja
Lösche führende und nachfolgende stille Blöcke : Nein
Null Samples gehen in CRC Berechnungen ein : Ja
Benutzte Schnittstelle : Installierte externe ASPI Schnittstelle

Benutztes Ausgabeformat : Interne WAV Routinen
Sampleformat : 44.100 Hz; 16 Bit; Stereo

TOC der ausgelesenen CD

Track | Start | Länge | Startsektor | Endsektor
——————————————————-
1 | 0:00.00 | 5:58.37 | 0 | 26886
2 | 5:58.37 | 4:10.35 | 26887 | 45671
3 | 10:08.72 | 7:28.65 | 45672 | 79336
4 | 17:37.62 | 5:47.60 | 79337 | 105421
5 | 23:25.47 | 4:36.45 | 105422 | 126166
6 | 28:02.17 | 4:08.13 | 126167 | 144779
7 | 32:10.30 | 3:40.17 | 144780 | 161296
8 | 35:50.47 | 5:04.45 | 161297 | 184141
9 | 40:55.17 | 8:32.30 | 184142 | 222571
10 | 49:27.47 | 3:13.15 | 222572 | 237061

Bereichsstatus und Fehler

Gewählter Bereich

Dateiname K:\AC-DC – Unremastered Albums\1994 – If You Want Blood – You’ve Got It\AC-DC – If You Want Blood You’ve Got It.wav

Spitzenpegel 100.0 %
Bereichsqualität 100.0 %
Kopie CRC E8CAE655
Kopie OK

Keine Fehler aufgetreten

AccurateRip Übersicht

Track 1 nicht in Datenbank enthalten
Track 2 nicht in Datenbank enthalten
Track 3 nicht in Datenbank enthalten
Track 4 nicht in Datenbank enthalten
Track 5 nicht in Datenbank enthalten
Track 6 nicht in Datenbank enthalten
Track 7 nicht in Datenbank enthalten
Track 8 nicht in Datenbank enthalten
Track 9 nicht in Datenbank enthalten
Track 10 nicht in Datenbank enthalten

Keiner der Tracks ist in der AccurateRip Datenbank vorhanden

Ende des Statusreports

REM GENRE Rock
REM DATE 1978
REM DISCID 850C580A
REM COMMENT “ExactAudioCopy v0.99pb5”
PERFORMER “AC-DC”
TITLE “If You Want Blood You’ve Got It”
FILE “AC-DC – If You Want Blood You’ve Got It.flac” WAVE
TRACK 01 AUDIO
TITLE “Riff Raff”
PERFORMER “AC-DC”
INDEX 01 00:00:00
TRACK 02 AUDIO
TITLE “Hell Ain’t A Bad Place To Be”
PERFORMER “AC-DC”
INDEX 00 05:58:36
INDEX 01 05:58:37
TRACK 03 AUDIO
TITLE “Bad Boy Boogie”
PERFORMER “AC-DC”
INDEX 00 10:08:71
INDEX 01 10:08:72
TRACK 04 AUDIO
TITLE “The Jack”
PERFORMER “AC-DC”
INDEX 00 17:37:61
INDEX 01 17:37:62
TRACK 05 AUDIO
TITLE “Problem Child”
PERFORMER “AC-DC”
INDEX 00 23:25:46
INDEX 01 23:25:47
TRACK 06 AUDIO
TITLE “Whole Lotta Rosie”
PERFORMER “AC-DC”
INDEX 00 28:02:16
INDEX 01 28:02:17
TRACK 07 AUDIO
TITLE “Rock ‘N’ Roll Damnation”
PERFORMER “AC-DC”
INDEX 00 32:10:29
INDEX 01 32:10:30
TRACK 08 AUDIO
TITLE “High Voltage”
PERFORMER “AC-DC”
INDEX 00 35:50:46
INDEX 01 35:50:47
TRACK 09 AUDIO
TITLE “Let There Be Rock”
PERFORMER “AC-DC”
INDEX 00 40:55:16
INDEX 01 40:55:17
TRACK 10 AUDIO
TITLE “Rocker”
PERFORMER “AC-DC”
INDEX 00 49:27:46
INDEX 01 49:27:47


Leave a Reply

Your email address will not be published. Required fields are marked *

Enter the text from the image below
 

This site uses Akismet to reduce spam. Learn how your comment data is processed.