ACDC – Highway To Hell (Remastered)




Artist: ACDC
Year: 1979/1995
Genre: Rock
Notes: Discogs
Add. Notes: Remastered
Encoder: FLAC
Bitrate: ~900 kBit/s (44.1 kHz/16 Bit/s)
Size: 360,79 MB
Password: “slam” (without ” “)


http://www.share-online.biz/dl/Q94OLCRPIEL4
https://rapidgator.net/file/d83082febedfd77fc266d79bcad0b766
https://ayefiles.com/136gtjoq1nt9/ACD-1979-HiToHe.rar.html
https://hitfile.net/D2K8Ekh

Tracklist:

1 - Highway To Hell - 3:37
2 - Girls Got Rhythm - 5:33
3 - Walk All Over You - 3:10
4 - Touch Too Much - 5:46
5 - Beating Around The Bush - 4:14
6 - Shot Down In Flames - 5:38
7 - Get It Hot - 5:00
8 - If You Want Blood (You've Got It) - 4:57
9 - Love Hungry Man - 4:07
10 - Night Prowler - 3:46

EAC-Log, CUE-Sheed & NFO:

Click to open spoiler
Exact Audio Copy V0.99 prebeta 5 from 4. May 2009

EAC Auslese-Logdatei vom 14. Juni 2010, 16:37

AC-DC / Highway To Hell

Benutztes Laufwerk : HL-DT-STDVD-ROM GDR-H30N Adapter: 0 ID: 1

Lesemodus : Sicher
Benutze Accurate Stream : Ja
Audio Puffer abgeschaltet : Ja
Benutze C2 Fehlerinformationen : Nein

Leseoffset Korrektur : 6
Überlesen in das Lead-In und Lead-Out : Nein
Fülle fehlende Offsetsample mit Stille auf : Ja
Lösche führende und nachfolgende stille Blöcke : Nein
Null Samples gehen in CRC Berechnungen ein : Ja
Benutzte Schnittstelle : Installierte externe ASPI Schnittstelle

Benutztes Ausgabeformat : Interne WAV Routinen
Sampleformat : 44.100 Hz; 16 Bit; Stereo

TOC der ausgelesenen CD

Track | Start | Länge | Startsektor | Endsektor
——————————————————-
1 | 0:00.00 | 3:27.72 | 0 | 15596
2 | 3:27.72 | 3:23.40 | 15597 | 30861
3 | 6:51.37 | 5:09.43 | 30862 | 54079
4 | 12:01.05 | 4:26.07 | 54080 | 74036
5 | 16:27.12 | 3:56.00 | 74037 | 91736
6 | 20:23.12 | 3:22.40 | 91737 | 106926
7 | 23:45.52 | 2:34.30 | 106927 | 118506
8 | 26:20.07 | 4:36.45 | 118507 | 139251
9 | 30:56.52 | 4:16.65 | 139252 | 158516
10 | 35:13.42 | 6:15.40 | 158517 | 186681

Bereichsstatus und Fehler

Gewählter Bereich

Dateiname K:\Audi\ACDC\1995 Australian Edition\1979 – Highway To Hell\AC-DC – Highway To Hell.wav

Spitzenpegel 99.8 %
Bereichsqualität 100.0 %
Kopie CRC 3E676D65
Kopie OK

Keine Fehler aufgetreten

AccurateRip Übersicht

Track 1 akkurat gelesen (Zuversicht 5) [1926B5A5]
Track 2 akkurat gelesen (Zuversicht 4) [3B671DF4]
Track 3 akkurat gelesen (Zuversicht 4) [3875BB06]
Track 4 akkurat gelesen (Zuversicht 4) [E20CA064]
Track 5 akkurat gelesen (Zuversicht 4) [7C70A6E1]
Track 6 akkurat gelesen (Zuversicht 4) [798E973B]
Track 7 akkurat gelesen (Zuversicht 4) [E5CDD3C5]
Track 8 akkurat gelesen (Zuversicht 4) [37FAF636]
Track 9 akkurat gelesen (Zuversicht 4) [B229348E]
Track 10 akkurat gelesen (Zuversicht 5) [ED0FA263]

Alle Tracks wurden akkurat gelesen

Ende des Statusreports

REM GENRE “Hard Rock”
REM DATE 1995
REM DISCID 8209B90A
REM COMMENT “ExactAudioCopy v0.99pb5”
PERFORMER “AC-DC”
TITLE “Highway To Hell”
FILE “AC-DC – Highway To Hell.flac” WAVE
TRACK 01 AUDIO
TITLE “Highway To Hell”
PERFORMER “AC-DC”
INDEX 01 00:00:00
TRACK 02 AUDIO
TITLE “Girls Got Rhythm”
PERFORMER “AC-DC”
INDEX 01 03:27:72
TRACK 03 AUDIO
TITLE “Walk All Over You”
PERFORMER “AC-DC”
INDEX 01 06:51:37
TRACK 04 AUDIO
TITLE “Touch Too Much”
PERFORMER “AC-DC”
INDEX 00 12:01:04
INDEX 01 12:01:05
TRACK 05 AUDIO
TITLE “Beating Around The Bush”
PERFORMER “AC-DC”
INDEX 01 16:27:12
TRACK 06 AUDIO
TITLE “Shot Down In Flames”
PERFORMER “AC-DC”
INDEX 01 20:23:12
TRACK 07 AUDIO
TITLE “Get It Hot”
PERFORMER “AC-DC”
INDEX 01 23:45:52
TRACK 08 AUDIO
TITLE “If You Want Blood (You’ve Got It)”
PERFORMER “AC-DC”
INDEX 01 26:20:07
TRACK 09 AUDIO
TITLE “Love Hungry Man”
PERFORMER “AC-DC”
INDEX 01 30:56:52
TRACK 10 AUDIO
TITLE “Night Prowler”
PERFORMER “AC-DC”
INDEX 01 35:13:42

Leave a Reply

Your email address will not be published. Required fields are marked *

This site uses Akismet to reduce spam. Learn how your comment data is processed.