ACDC – High Voltage (Remastered)




Artist: AC/DC
Year: 1976/1994
Genre: Rock
Notes: Discogs
Add. Notes: Remastered
Encoder: FLAC
Bitrate: ~900 kBit/s (44.1 kHz/16 Bit/s)
Size: 303,26 MB
Password: “slam” (without ” “)


http://www.share-online.biz/dl/MEULLCRPOC7P
https://rapidgator.net/file/f2f08fc532c1ca978bd3e45bcf01c3b7
https://ayefiles.com/a01i1bwrvx8c/ACD-1976-HiVo.rar.html
https://hitfile.net/utu0PHZ

Tracklist:

1 - It's A Long Way To The Top - 5:16
2 - Rock 'n' Roll Singer - 5:04
3 - The Jack - 5:52
4 - Live Wire - 5:50
5 - T.N.T. - 3:34
6 - Can I Sit Next To You Girl - 4:12
7 - Little Lover - 5:37
8 - She's Got Balls - 4:51
9 - High Voltage - 4:03

EAC-Log, CUE-Sheed & NFO:

Click to open spoiler
Exact Audio Copy V1.0 beta 1 from 15. November 2010

EAC extraction logfile from 20. March 2011, 14:50

AC-DC / High Voltage

Used drive : PLEXTOR CD-R PREMIUM Adapter: 1 ID: 0

Read mode : Secure
Utilize accurate stream : Yes
Defeat audio cache : Yes
Make use of C2 pointers : No

Read offset correction : 30
Overread into Lead-In and Lead-Out : No
Fill up missing offset samples with silence : Yes
Delete leading and trailing silent blocks : No
Null samples used in CRC calculations : Yes
Used interface : Native Win32 interface for Win NT & 2000

Used output format : User Defined Encoder
Selected bitrate : 1024 kBit/s
Quality : High
Add ID3 tag : No
Command line compressor : C:\!tools\wavpack.exe
Additional command line options : -hlm %s

TOC of the extracted CD

Track | Start | Length | Start sector | End sector
———————————————————
1 | 0:00.00 | 5:15.67 | 0 | 23691
2 | 5:15.67 | 5:03.58 | 23692 | 46474
3 | 10:19.50 | 5:51.62 | 46475 | 72861
4 | 16:11.37 | 5:49.70 | 72862 | 99106
5 | 22:01.32 | 3:34.43 | 99107 | 115199
6 | 25:36.00 | 4:11.52 | 115200 | 134076
7 | 29:47.52 | 5:39.35 | 134077 | 159536
8 | 35:27.12 | 4:50.58 | 159537 | 181344
9 | 40:17.70 | 4:03.37 | 181345 | 199606

Range status and errors

Selected range

Filename D:\CB_RAB\AC-DC – 1976 – High Voltage\AC-DC – High Voltage.wav

Peak level 99.8 %
Extraction speed 0.5 X
Range quality 100.0 %
Test CRC C06320C0
Copy CRC C06320C0
Copy OK

No errors occurred

AccurateRip summary

Track 1 accurately ripped (confidence 2) [6FDA3D5C]
Track 2 accurately ripped (confidence 2) [AD4B097B]
Track 3 accurately ripped (confidence 2) [3BF86133]
Track 4 accurately ripped (confidence 2) [3C388BAC]
Track 5 accurately ripped (confidence 2) [2155684E]
Track 6 accurately ripped (confidence 2) [F30CBE23]
Track 7 accurately ripped (confidence 2) [39F95073]
Track 8 accurately ripped (confidence 2) [FA928342]
Track 9 accurately ripped (confidence 2) [53DC7505]

All tracks accurately ripped

End of status report

==== Log checksum EE111A5AB39EB66D3FE3AC61E96CAFEF72EBC5941EF3C8145144C21D803C28F8 ====

REM GENRE “Hard Rock”
REM DATE 1976
REM DISCID 7A0A6509
REM COMMENT “ExactAudioCopy v1.0b1”
CATALOG 7567924130204
PERFORMER “AC/DC”
TITLE “High Voltage”
FILE “AC-DC – 1976 – High Voltage.flac” WAVE
TRACK 01 AUDIO
TITLE “It’s A Long Way To The Top (If You Wanna Rock’N’Roll)”
PERFORMER “AC/DC”
INDEX 01 00:00:00
TRACK 02 AUDIO
TITLE “Rock’N’Roll Singer”
PERFORMER “AC/DC”
INDEX 00 05:14:72
INDEX 01 05:15:67
TRACK 03 AUDIO
TITLE “The Jack”
PERFORMER “AC/DC”
INDEX 00 10:19:00
INDEX 01 10:19:50
TRACK 04 AUDIO
TITLE “Live Wire”
PERFORMER “AC/DC”
INDEX 00 16:10:47
INDEX 01 16:11:37
TRACK 05 AUDIO
TITLE “T.N.T.”
PERFORMER “AC/DC”
INDEX 00 22:00:32
INDEX 01 22:01:32
TRACK 06 AUDIO
TITLE “Can I Sit Next To You Girl”
PERFORMER “AC/DC”
INDEX 01 25:36:00
TRACK 07 AUDIO
TITLE “Little Lover”
PERFORMER “AC/DC”
INDEX 00 29:46:32
INDEX 01 29:47:52
TRACK 08 AUDIO
TITLE “She’s Got Balls”
PERFORMER “AC/DC”
INDEX 00 35:25:30
INDEX 01 35:27:12
TRACK 09 AUDIO
TITLE “High Voltage”
PERFORMER “AC/DC”
INDEX 00 40:17:67
INDEX 01 40:17:70

Leave a Reply

Your email address will not be published. Required fields are marked *

Enter the text from the image below
 

This site uses Akismet to reduce spam. Learn how your comment data is processed.