ACDC – For Those About To Rock We Salute You (Remastered)




Artist: ACDC
Year: 1981/1995
Genre: Rock
Notes: Discogs
Add. Notes: Remastered
Encoder: FLAC
Bitrate: ~900 kBit/s (44.1 kHz/16 Bit/s)
Size: 363,19 MB
Password: “slam” (without ” “)


http://www.share-online.biz/dl/U9JPLCRPMRYN
https://rapidgator.net/file/d601010c84a42fc34365d1a559106d94
https://ayefiles.com/sqj02jljxzh8/ACD-1981-FoThAbToRoWeSaYo.rar.html
https://hitfile.net/5tUEfL6

Tracklist:

1 - For Those About To Rock (We Salute You) - 5:43
2 - Put The Finger On You - 3:23
3 - Let's Get It Up - 4:23
4 - Inject The Venom - 3:19
5 - Snowballed - 3:25
6 - Evil Walks - 3:25
7 - C.O.D. - 3:53
8 - Breaking The Rules - 4:23
9 - Night Of The Long Knives - 4:29
10 - Spellbound - 3:31

EAC-Log, CUE-Sheed & NFO:

Click to open spoiler
Exact Audio Copy V0.99 prebeta 5 from 4. May 2009

EAC Auslese-Logdatei vom 14. Juni 2010, 17:07

acdc / for those about to rock [we salute you] [4770902]

Benutztes Laufwerk : HL-DT-STDVD-ROM GDR-H30N Adapter: 0 ID: 1

Lesemodus : Sicher
Benutze Accurate Stream : Ja
Audio Puffer abgeschaltet : Ja
Benutze C2 Fehlerinformationen : Nein

Leseoffset Korrektur : 6
Überlesen in das Lead-In und Lead-Out : Nein
Fülle fehlende Offsetsample mit Stille auf : Ja
Lösche führende und nachfolgende stille Blöcke : Nein
Null Samples gehen in CRC Berechnungen ein : Ja
Benutzte Schnittstelle : Installierte externe ASPI Schnittstelle

Benutztes Ausgabeformat : Interne WAV Routinen
Sampleformat : 44.100 Hz; 16 Bit; Stereo

TOC der ausgelesenen CD

Track | Start | Länge | Startsektor | Endsektor
——————————————————-
1 | 0:00.00 | 5:43.70 | 0 | 25794
2 | 5:43.70 | 3:25.25 | 25795 | 41194
3 | 9:09.20 | 3:53.42 | 41195 | 58711
4 | 13:02.62 | 3:30.58 | 58712 | 74519
5 | 16:33.45 | 3:23.00 | 74520 | 89744
6 | 19:56.45 | 4:23.25 | 89745 | 109494
7 | 24:19.70 | 3:19.50 | 109495 | 124469
8 | 27:39.45 | 4:23.12 | 124470 | 144206
9 | 32:02.57 | 3:25.63 | 144207 | 159644
10 | 35:28.45 | 4:29.55 | 159645 | 179874

Bereichsstatus und Fehler

Gewählter Bereich

Dateiname K:\Audi\ACDC\1995 Australian Edition\1981 – For Those About To Rock\acdc – for those about to rock [we salute you] [4770902].wav

Spitzenpegel 99.8 %
Bereichsqualität 100.0 %
Test CRC B8DBEC22
Kopie CRC B8DBEC22
Kopie OK

Keine Fehler aufgetreten

AccurateRip Übersicht

Track 1 akkurat gelesen (Zuversicht 1) [9159FA04]
Track 2 akkurat gelesen (Zuversicht 1) [F4B4FB3F]
Track 3 akkurat gelesen (Zuversicht 1) [30ED6E61]
Track 4 akkurat gelesen (Zuversicht 1) [621DA972]
Track 5 akkurat gelesen (Zuversicht 1) [A822E342]
Track 6 akkurat gelesen (Zuversicht 1) [A6A691D2]
Track 7 akkurat gelesen (Zuversicht 1) [4E1E0082]
Track 8 akkurat gelesen (Zuversicht 1) [92E5DFDB]
Track 9 akkurat gelesen (Zuversicht 1) [4887E4CA]
Track 10 akkurat gelesen (Zuversicht 1) [2FCDD36C]

Alle Tracks wurden akkurat gelesen

Ende des Statusreports

REM GENRE “Hard Rock”
REM DATE 1981
REM DISCID 86095E0A
REM COMMENT “ExactAudioCopy v0.99pb5”
PERFORMER “acdc”
TITLE “for those about to rock [we salute you] [4770902]”
FILE “acdc – for those about to rock [we salute you] [4770902].flac” WAVE
TRACK 01 AUDIO
TITLE “for those about to rock [we salute you]”
PERFORMER “acdc”
INDEX 01 00:00:00
TRACK 02 AUDIO
TITLE “put the finger on you”
PERFORMER “acdc”
INDEX 01 05:43:70
TRACK 03 AUDIO
TITLE “let’s get it up”
PERFORMER “acdc”
INDEX 01 09:09:20
TRACK 04 AUDIO
TITLE “inject the venom”
PERFORMER “acdc”
INDEX 01 13:02:62
TRACK 05 AUDIO
TITLE “snowballed”
PERFORMER “acdc”
INDEX 01 16:33:45
TRACK 06 AUDIO
TITLE “evil walks”
PERFORMER “acdc”
INDEX 01 19:56:45
TRACK 07 AUDIO
TITLE “c.o.d.”
PERFORMER “acdc”
INDEX 01 24:19:70
TRACK 08 AUDIO
TITLE “breaking the rules”
PERFORMER “acdc”
INDEX 01 27:39:45
TRACK 09 AUDIO
TITLE “night of the long knives”
PERFORMER “acdc”
INDEX 01 32:02:57
TRACK 10 AUDIO
TITLE “spellbound”
PERFORMER “acdc”
INDEX 01 35:28:45

Leave a Reply

Your email address will not be published. Required fields are marked *

This site uses Akismet to reduce spam. Learn how your comment data is processed.