ACDC – Fly On The Wall (Remastered)




Artist: ACDC
Year: 1985/1995
Genre: Rock
Notes: Discogs
Add. Notes: Remastered
Encoder: FLAC
Bitrate: ~1000 kBit/s (44.1 kHz/16 Bit/s)
Size: 354,83 MB
Password: “slam” (without ” “)


http://www.share-online.biz/dl/WKVRLCRPL2K
https://rapidgator.net/file/a6b822b0833fdc3650568dbe0ef69052
https://ayefiles.com/spgljqdyrxi6/ACD-1985-FlOnTh_Wa.rar.html
https://hitfile.net/lQ7zpVb

Tracklist:

1 - Fly On The Wall - 3:44
2 - Shake Your Foundations - 4:08
3 - First Blood - 3:43
4 - Danger - 4:19
5 - Sink The Pink - 4:12
6 - Playing With Girls - 3:43
7 - Stand Up - 3:49
8 - Hell Or High Water - 4:29
9 - Back In Business - 4:21
10 - Send For The Man - 3:25

EAC-Log, CUE-Sheed & NFO:

Click to open spoiler
Exact Audio Copy V0.99 prebeta 5 from 4. May 2009

EAC Auslese-Logdatei vom 14. Juni 2010, 17:22

AC/DC / Fly On The Wall

Benutztes Laufwerk : HL-DT-STDVD-ROM GDR-H30N Adapter: 0 ID: 1

Lesemodus : Sicher
Benutze Accurate Stream : Ja
Audio Puffer abgeschaltet : Ja
Benutze C2 Fehlerinformationen : Nein

Leseoffset Korrektur : 6
Überlesen in das Lead-In und Lead-Out : Nein
Fülle fehlende Offsetsample mit Stille auf : Ja
Lösche führende und nachfolgende stille Blöcke : Nein
Null Samples gehen in CRC Berechnungen ein : Ja
Benutzte Schnittstelle : Installierte externe ASPI Schnittstelle

Benutztes Ausgabeformat : Interne WAV Routinen
Sampleformat : 44.100 Hz; 16 Bit; Stereo

TOC der ausgelesenen CD

Track | Start | Länge | Startsektor | Endsektor
——————————————————-
1 | 0:00.00 | 3:44.07 | 0 | 16806
2 | 3:44.07 | 4:10.38 | 16807 | 35594
3 | 7:54.45 | 3:45.55 | 35595 | 52524
4 | 11:40.25 | 4:22.37 | 52525 | 72211
5 | 16:02.62 | 4:14.55 | 72212 | 91316
6 | 20:17.42 | 3:45.00 | 91317 | 108191
7 | 24:02.42 | 3:52.68 | 108192 | 125659
8 | 27:55.35 | 4:31.72 | 125660 | 146056
9 | 32:27.32 | 4:24.00 | 146057 | 165856
10 | 36:51.32 | 3:25.58 | 165857 | 181289

Bereichsstatus und Fehler

Gewählter Bereich

Dateiname K:\Audi\ACDC\1995 Australian Edition\1985 – Fly On The Wall\AC DC – Fly On The Wall.wav

Spitzenpegel 100.0 %
Bereichsqualität 100.0 %
Kopie CRC 13838F60
Kopie OK

Keine Fehler aufgetreten

AccurateRip Übersicht

Track 1 kann nicht als akkurat verifiziert werden (Zuversicht 8) [5A2B3189], AccurateRip lieferte [378FAFEF]
Track 2 kann nicht als akkurat verifiziert werden (Zuversicht 8) [FC3D3371], AccurateRip lieferte [1662D02D]
Track 3 kann nicht als akkurat verifiziert werden (Zuversicht 8) [FDBE3665], AccurateRip lieferte [45216365]
Track 4 kann nicht als akkurat verifiziert werden (Zuversicht 8) [DE34B8C4], AccurateRip lieferte [FCBAA13A]
Track 5 kann nicht als akkurat verifiziert werden (Zuversicht 8) [0E01A9AB], AccurateRip lieferte [58CB2B91]
Track 6 kann nicht als akkurat verifiziert werden (Zuversicht 8) [1873A94E], AccurateRip lieferte [002AB88C]
Track 7 kann nicht als akkurat verifiziert werden (Zuversicht 8) [61F4EF94], AccurateRip lieferte [9ECB3045]
Track 8 kann nicht als akkurat verifiziert werden (Zuversicht 8) [1925D0AA], AccurateRip lieferte [538BC9F9]
Track 9 kann nicht als akkurat verifiziert werden (Zuversicht 8) [5BEF1C5E], AccurateRip lieferte [E58D25B4]
Track 10 kann nicht als akkurat verifiziert werden (Zuversicht 8) [7B6840EC], AccurateRip lieferte [49717297]

Kein Track konnte als akkurat verifiziert werden
Es könnte sich um eine andere Pressung als von der in der Datenbank vorhandenen handeln

Ende des Statusreports

REM GENRE “Hard Rock”
REM DATE 1985
REM DISCID 8709710A
REM COMMENT “ExactAudioCopy v0.99pb5”
PERFORMER “AC/DC”
TITLE “Fly On The Wall”
FILE “AC DC – Fly On The Wall.wav” WAVE
TRACK 01 AUDIO
TITLE “Fly On The Wall”
PERFORMER “AC/DC”
INDEX 01 00:00:00
TRACK 02 AUDIO
TITLE “Shake Your Foundations”
PERFORMER “AC/DC”
INDEX 01 03:44:07
TRACK 03 AUDIO
TITLE “First Blood”
PERFORMER “AC/DC”
INDEX 00 07:52:57
INDEX 01 07:54:45
TRACK 04 AUDIO
TITLE “Danger”
PERFORMER “AC/DC”
INDEX 00 11:38:32
INDEX 01 11:40:25
TRACK 05 AUDIO
TITLE “Sink The Pink”
PERFORMER “AC/DC”
INDEX 00 16:01:37
INDEX 01 16:02:62
TRACK 06 AUDIO
TITLE “Playing With Girls”
PERFORMER “AC/DC”
INDEX 00 20:15:67
INDEX 01 20:17:42
TRACK 07 AUDIO
TITLE “Stand Up”
PERFORMER “AC/DC”
INDEX 00 24:00:60
INDEX 01 24:02:42
TRACK 08 AUDIO
TITLE “Hell Or High Water”
PERFORMER “AC/DC”
INDEX 00 27:53:62
INDEX 01 27:55:35
TRACK 09 AUDIO
TITLE “Back In Business”
PERFORMER “AC/DC”
INDEX 01 32:27:32
TRACK 10 AUDIO
TITLE “Send For The Man”
PERFORMER “AC/DC”
INDEX 01 36:51:32

Leave a Reply

Your email address will not be published. Required fields are marked *

Enter the text from the image below
 

This site uses Akismet to reduce spam. Learn how your comment data is processed.