ACDC – Dirty Deeds Done Dirt Cheap (Remastered)




No Cover available

Artist: AC/DC
Year: 1976/1994
Genre: Rock
Notes: Discogs
Add. Notes: Remastered
Watch Songs on: YouTube
Cover incl.: Yes
Encoder: FLAC
Bitrate: ~800 kBit/s (44.1 kHz/16 Bit/s)
Log & Cue incl.: Yes/Yes
Size: 301,8 MB
Password: “slam” (without ” “)


All Downloads/Hosters are compatible

Download 1
KatFile.com
Turbobit.net
FileFactory.com
Rapidgator.net
Download 2
KatFile.com
Turbobit.net
FileFactory.com
Rapidgator.net

Tracklist:

1 - Dirty Deeds Done Dirt Cheap - 3:46
2 - Love At First Feel - 3:05
3 - Big Balls - 2:39
4 - Rocker - 2:46
5 - Problem Child - 5:43
6 - There's Gonna Be Some Rockin' - 3:14
7 - Ain't No Fun (Waiting Round To Be A Millionaire) - 6:57
8 - Ride On - 5:47
9 - Squealer - 5:12

EAC-Log, CUE-Sheed & NFO:

Click to open spoiler
Exact Audio Copy V0.99 prebeta 4 from 23. January 2008

EAC Auslese-Logdatei vom 23. Juli 2009, 1:56

AC-DC / Dirty Deeds Done Dirt Cheap

Benutztes Laufwerk : HL-DT-STDVD-ROM GDR-H30N Adapter: 0 ID: 1

Lesemodus : Sicher
Benutze Accurate Stream : Ja
Audio Puffer abgeschaltet : Ja
Benutze C2 Fehlerinformationen : Nein

Leseoffset Korrektur : 6
Überlesen in das Lead-In und Lead-Out : Nein
Fülle fehlende Offsetsample mit Stille auf : Ja
Lösche führende und nachfolgende stille Blöcke : Nein
Null Samples gehen in CRC Berechnungen ein : Ja
Benutzte Schnittstelle : Installierte externe ASPI Schnittstelle

Benutztes Ausgabeformat : Interne WAV Routinen
Sampleformat : 44.100 Hz; 16 Bit; Stereo

TOC der ausgelesenen CD

Track | Start | Länge | Startsektor | Endsektor
——————————————————-
1 | 0:00.00 | 4:12.00 | 0 | 18899
2 | 4:12.00 | 3:10.60 | 18900 | 33209
3 | 7:22.60 | 2:38.25 | 33210 | 45084
4 | 10:01.10 | 2:49.55 | 45085 | 57814
5 | 12:50.65 | 5:44.73 | 57815 | 83687
6 | 18:35.63 | 3:17.22 | 83688 | 98484
7 | 21:53.10 | 7:29.10 | 98485 | 132169
8 | 29:22.20 | 5:49.33 | 132170 | 158377
9 | 35:11.53 | 5:14.20 | 158378 | 181947

Bereichsstatus und Fehler

Gewählter Bereich

Dateiname K:\AC-DC – Unremastered Albums\1994 – Dirty Deeds Done Dirt Cheap\AC-DC – Dirty Deeds Done Dirt Cheap.wav

Spitzenpegel 99.8 %
Bereichsqualität 100.0 %
Kopie CRC 9D15095F
Kopie OK

Keine Fehler aufgetreten

AccurateRip Übersicht

Track 1 akkurat gelesen (Zuversicht 44) [D893740E]
Track 2 akkurat gelesen (Zuversicht 45) [CC584638]
Track 3 akkurat gelesen (Zuversicht 44) [D499F956]
Track 4 akkurat gelesen (Zuversicht 45) [1BC34E78]
Track 5 akkurat gelesen (Zuversicht 45) [B9C6755E]
Track 6 akkurat gelesen (Zuversicht 45) [FAE3E3F6]
Track 7 akkurat gelesen (Zuversicht 45) [C327B83F]
Track 8 akkurat gelesen (Zuversicht 45) [453C862C]
Track 9 akkurat gelesen (Zuversicht 44) [D71C96AE]

Alle Tracks wurden akkurat gelesen

Ende des Statusreports

REM GENRE Rock
REM DATE 1976
REM DISCID 5F097909
REM COMMENT “ExactAudioCopy v0.99pb4”
PERFORMER “AC-DC”
TITLE “Dirty Deeds Done Dirt Cheap”
FILE “AC-DC – Dirty Deeds Done Dirt Cheap.flac” WAVE
TRACK 01 AUDIO
TITLE “Dirty Deeds Done Dirt Cheap”
PERFORMER “AC-DC”
INDEX 01 00:00:00
TRACK 02 AUDIO
TITLE “Love At First Feel”
PERFORMER “AC-DC”
INDEX 01 04:12:00
TRACK 03 AUDIO
TITLE “Big Balls”
PERFORMER “AC-DC”
INDEX 00 07:21:35
INDEX 01 07:22:60
TRACK 04 AUDIO
TITLE “Rocker”
PERFORMER “AC-DC”
INDEX 01 10:01:10
TRACK 05 AUDIO
TITLE “Problem Child”
PERFORMER “AC-DC”
INDEX 01 12:50:65
TRACK 06 AUDIO
TITLE “There’s Gonna Be Some Rockin'”
PERFORMER “AC-DC”
INDEX 01 18:35:63
TRACK 07 AUDIO
TITLE “Ain’t No Fun (Waiting Round To Be A Millionaire)”
PERFORMER “AC-DC”
INDEX 01 21:53:10
TRACK 08 AUDIO
TITLE “Ride On”
PERFORMER “AC-DC”
INDEX 01 29:22:20
TRACK 09 AUDIO
TITLE “Squealer”
PERFORMER “AC-DC”
INDEX 01 35:11:53


Leave a Reply

Your email address will not be published. Required fields are marked *

This site uses Akismet to reduce spam. Learn how your comment data is processed.