ACDC – Back In Black (Remastered)




Artist: ACDC
Year: 1980/1995
Genre: Rock
Notes: Discogs
Add. Notes: Remastered
Cover incl.: Yes
Encoder: FLAC
Bitrate: ~900 kBit/s (44.1 kHz/16 Bit/s)
Log & Cue incl.: Yes
Size: 363,84 MB
Password: “slam” (without ” “)


All Downloads/Hosters are compatible

Download 1
Turbobit.net
Rapidgator.net
KatFile.com
UploadRar.com
Download 2
Turbobit.net
Rapidgator.net
KatFile.com
UploadRar.com

Tracklist:

1 - Hell's Bells - 5:12
2 - Shoot To Thrill - 5:18
3 - What Do You Do For Money 
Honey - 3:36
4 - Giving The Dog A Bone - 3:32
5 - Let Me Put My Love Into You - 
4:15
6 - Back In Black - 4:16
7 - You Shook Me All Night Long - 
3:30
8 - Have A Drink On Me - 3:59
9 - Shake A Leg - 4:06
10 - Rock 'n' Roll Ain't Noise 
Pollution - 4:14

EAC-Log, CUE-Sheed & NFO:

Click to open spoiler
Exact Audio Copy V0.99 prebeta 5 from 4. May 2009

EAC Auslese-Logdatei vom 14. Juni 2010, 16:45

AC-DC / Back In Black

Benutztes Laufwerk : HL-DT-STDVD-ROM GDR-H30N Adapter: 0 ID: 1

Lesemodus : Sicher
Benutze Accurate Stream : Ja
Audio Puffer abgeschaltet : Ja
Benutze C2 Fehlerinformationen : Nein

Leseoffset Korrektur : 6
Überlesen in das Lead-In und Lead-Out : Nein
Fülle fehlende Offsetsample mit Stille auf : Ja
Lösche führende und nachfolgende stille Blöcke : Nein
Null Samples gehen in CRC Berechnungen ein : Ja
Benutzte Schnittstelle : Installierte externe ASPI Schnittstelle

Benutztes Ausgabeformat : Interne WAV Routinen
Sampleformat : 44.100 Hz; 16 Bit; Stereo

TOC der ausgelesenen CD

Track | Start | Länge | Startsektor | Endsektor
——————————————————-
1 | 0:00.00 | 5:12.25 | 0 | 23424
2 | 5:12.25 | 5:18.15 | 23425 | 47289
3 | 10:30.40 | 3:35.62 | 47290 | 63476
4 | 14:06.27 | 3:32.23 | 63477 | 79399
5 | 17:38.50 | 4:15.00 | 79400 | 98524
6 | 21:53.50 | 4:16.00 | 98525 | 117724
7 | 26:09.50 | 3:30.25 | 117725 | 133499
8 | 29:40.00 | 3:59.17 | 133500 | 151441
9 | 33:39.17 | 4:06.08 | 151442 | 169899
10 | 37:45.25 | 4:14.17 | 169900 | 188966

Bereichsstatus und Fehler

Gewählter Bereich

Dateiname K:\Audi\ACDC\1995 Australian Edition\1980 – Back In Black\AC-DC – Back In Black.wav

Spitzenpegel 99.8 %
Bereichsqualität 100.0 %
Kopie CRC AF7F7C2B
Kopie OK

Keine Fehler aufgetreten

AccurateRip Übersicht

Track 1 akkurat gelesen (Zuversicht 9) [D502D964]
Track 2 akkurat gelesen (Zuversicht 8) [F3B52E3D]
Track 3 akkurat gelesen (Zuversicht 9) [9A34CF96]
Track 4 akkurat gelesen (Zuversicht 8) [8818D3DD]
Track 5 akkurat gelesen (Zuversicht 8) [F23FD95E]
Track 6 akkurat gelesen (Zuversicht 9) [E4CC5E12]
Track 7 akkurat gelesen (Zuversicht 9) [D1ED0C16]
Track 8 akkurat gelesen (Zuversicht 9) [0E3BADA7]
Track 9 akkurat gelesen (Zuversicht 8) [A087A069]
Track 10 akkurat gelesen (Zuversicht 9) [24C41481]

Alle Tracks wurden akkurat gelesen

Ende des Statusreports

REM GENRE “Hard Rock”
REM DATE 1980
REM DISCID 7009D70A
REM COMMENT “ExactAudioCopy v0.99pb5”
PERFORMER “AC-DC”
TITLE “Back In Black”
FILE “AC-DC – Back In Black.flac” WAVE
TRACK 01 AUDIO
TITLE “Hell’s Bells”
PERFORMER “AC-DC”
INDEX 01 00:00:00
TRACK 02 AUDIO
TITLE “Shoot To Thrill”
PERFORMER “AC-DC”
INDEX 01 05:12:25
TRACK 03 AUDIO
TITLE “What Do You Do For Money Honey”
PERFORMER “AC-DC”
INDEX 01 10:30:40
TRACK 04 AUDIO
TITLE “Giving The Dog A Bone”
PERFORMER “AC-DC”
INDEX 01 14:06:27
TRACK 05 AUDIO
TITLE “Let Me Put My Love Into You”
PERFORMER “AC-DC”
INDEX 01 17:38:50
TRACK 06 AUDIO
TITLE “Back In Black”
PERFORMER “AC-DC”
INDEX 01 21:53:50
TRACK 07 AUDIO
TITLE “You Shook Me All Night Long”
PERFORMER “AC-DC”
INDEX 01 26:09:50
TRACK 08 AUDIO
TITLE “Have A Drink On Me”
PERFORMER “AC-DC”
INDEX 01 29:40:00
TRACK 09 AUDIO
TITLE “Shake A Leg”
PERFORMER “AC-DC”
INDEX 01 33:39:17
TRACK 10 AUDIO
TITLE “Rock ‘n’ Roll Ain’t Noise Pollution”
PERFORMER “AC-DC”
INDEX 01 37:45:25


Leave a Reply

Your email address will not be published. Required fields are marked *

This site uses Akismet to reduce spam. Learn how your comment data is processed.