ACDC – ’74 Jailbreak (Remastered)




Artist: ACDC
Year: 1984/1994
Genre: Rock
Notes: Discogs
Add. Notes: Remastered
Encoder: FLAC
Bitrate: ~900 kBit/s (44.1 kHz/16 Bit/s)
Size: 186,66 MB
Password: “slam” (without ” “)


http://www.share-online.biz/dl/LN8QLCRP3ME
https://rapidgator.net/file/59864a4d9d9878a9d51509461356edac
https://ayefiles.com/ozdjomxfb3zl/ACD-1984-74Ja.rar.html
https://hitfile.net/c4JkANJ

Tracklist:

1 - Jailbreak - 4:40
2 - You Ain't Got A Hold On Me - 3:30
3 - Show Business - 4:43
4 - Soul Stripper - 6:23
5 - Baby, Please Don't Go - 4:50

EAC-Log, CUE-Sheed & NFO:

Click to open spoiler
Exact Audio Copy V1.0 beta 1 from 15. November 2010

EAC extraction logfile from 20. March 2011, 13:59

ACDC / ’74 Jailbreak

Used drive : PLEXTOR CD-R PREMIUM Adapter: 1 ID: 0

Read mode : Secure
Utilize accurate stream : Yes
Defeat audio cache : Yes
Make use of C2 pointers : No

Read offset correction : 30
Overread into Lead-In and Lead-Out : No
Fill up missing offset samples with silence : Yes
Delete leading and trailing silent blocks : No
Null samples used in CRC calculations : Yes
Used interface : Native Win32 interface for Win NT & 2000

Used output format : User Defined Encoder
Selected bitrate : 1024 kBit/s
Quality : High
Add ID3 tag : No
Command line compressor : C:\!tools\wavpack.exe
Additional command line options : -hlm %s

TOC of the extracted CD

Track | Start | Length | Start sector | End sector
———————————————————
1 | 0:00.00 | 4:42.20 | 0 | 21169
2 | 4:42.20 | 3:33.20 | 21170 | 37164
3 | 8:15.40 | 4:46.60 | 37165 | 58674
4 | 13:02.25 | 6:25.05 | 58675 | 87554
5 | 19:27.30 | 4:50.07 | 87555 | 109311

Range status and errors

Selected range

Filename D:\CB_RAB\ACDC -1984 – ’74 Jailbreak\ACDC -1984 – ’74 Jailbreak.wav

Peak level 99.8 %
Extraction speed 1.0 X
Range quality 100.0 %
Test CRC 5D7CA349
Copy CRC 5D7CA349
Copy OK

No errors occurred

AccurateRip summary

Track 1 accurately ripped (confidence 5) [F49B2C98]
Track 2 accurately ripped (confidence 5) [DDA26DAD]
Track 3 accurately ripped (confidence 5) [7B48BD04]
Track 4 accurately ripped (confidence 5) [E0CB9C0E]
Track 5 accurately ripped (confidence 5) [A6110035]

All tracks accurately ripped

End of status report

==== Log checksum E314B9484DB2C8DD94031DD4C8A92631B5C580D064B1C5288B37365D60475A66 ====

REM GENRE “Hard Rock”
REM DATE 1984
REM DISCID 4805B105
REM COMMENT “ExactAudioCopy v1.0b1”
CATALOG 7567924490209
PERFORMER “AC/DC”
TITLE “’74 Jailbreak”
FILE “AC-DC – 1984 – ’74 Jailbreak.flac” WAVE
TRACK 01 AUDIO
TITLE “Jailbreak”
PERFORMER “AC/DC”
INDEX 01 00:00:00
TRACK 02 AUDIO
TITLE “You Ain’t Got A Hold On Me”
PERFORMER “AC/DC”
INDEX 00 04:41:25
INDEX 01 04:42:20
TRACK 03 AUDIO
TITLE “Show Business”
PERFORMER “AC/DC”
INDEX 01 08:15:40
TRACK 04 AUDIO
TITLE “Soul Stripper”
PERFORMER “AC/DC”
INDEX 01 13:02:25
TRACK 05 AUDIO
TITLE “Baby, Please Don’t Go”
PERFORMER “AC/DC”
INDEX 01 19:27:30

Leave a Reply

Your email address will not be published. Required fields are marked *

This site uses Akismet to reduce spam. Learn how your comment data is processed.