AC/DC – Who Made Who




No Cover available

Artist: AC/DC
Year: 1986/1992
Genre: Rock
Notes: Discogs
Add. Notes:
Watch Songs on: YouTube
Cover incl.: Yes
Encoder: FLAC
Bitrate: ~900 kBit/s (44.1 kHz/16 Bit/s)
Log & Cue incl.: Yes/Yes
Size: 308,4 MB
Password: “slam” (without ” “)


All Downloads/Hosters are compatible

Download 1
KatFile.com
Turbobit.net
Rapidgator.net
DoUploads.net
Download 2
KatFile.com
Turbobit.net
Rapidgator.net
DoUploads.net

Tracklist:

1 Who Made Who 3:26
2 You Shook Me All Night Long 3:31
3 D.T. 2:56
4 Sink The Pink 4:15
5 Ride On 5:50
6 Hells Bells 5:13
7 Shake Your Foundations 4:10
8 Chase The Ace 3:01
9 For Those About To Rock (We Salute You) 5:44

EAC-Log, CUE-Sheed & NFO:

Click to open spoiler
Exact Audio Copy V0.99 prebeta 4 from 23. January 2008

EAC Auslese-Logdatei vom 25. Juni 2009, 10:53

AC/DC / Who Made Who

Benutztes Laufwerk : HL-DT-STDVD-ROM GDR-H30N Adapter: 0 ID: 1

Lesemodus : Sicher
Benutze Accurate Stream : Ja
Audio Puffer abgeschaltet : Ja
Benutze C2 Fehlerinformationen : Nein

Leseoffset Korrektur : 6
Überlesen in das Lead-In und Lead-Out : Nein
Fülle fehlende Offsetsample mit Stille auf : Ja
Lösche führende und nachfolgende stille Blöcke : Nein
Null Samples gehen in CRC Berechnungen ein : Ja
Benutzte Schnittstelle : Installierte externe ASPI Schnittstelle

Benutztes Ausgabeformat : Interne WAV Routinen
Sampleformat : 44.100 Hz; 16 Bit; Stereo

TOC der ausgelesenen CD

Track | Start | Länge | Startsektor | Endsektor
——————————————————-
1 | 0:00.00 | 3:27.55 | 0 | 15579
2 | 3:27.55 | 3:31.12 | 15580 | 31416
3 | 6:58.67 | 2:56.65 | 31417 | 44681
4 | 9:55.57 | 4:15.13 | 44682 | 63819
5 | 14:10.70 | 5:50.45 | 63820 | 90114
6 | 20:01.40 | 5:13.10 | 90115 | 113599
7 | 25:14.50 | 4:10.42 | 113600 | 132391
8 | 29:25.17 | 3:01.45 | 132392 | 146011
9 | 32:26.62 | 5:43.70 | 146012 | 171806

Bereichsstatus und Fehler

Gewählter Bereich

Dateiname K:\AC-DC – Unremastered Albums\1986 – Who Made Who\AC DC – Who Made Who.wav

Spitzenpegel 100.0 %
Bereichsqualität 100.0 %
Kopie CRC 06566B46
Kopie OK

Keine Fehler aufgetreten

AccurateRip Übersicht

Track 1 akkurat gelesen (Zuversicht 72) [C46EA8D9]
Track 2 akkurat gelesen (Zuversicht 73) [A62E7641]
Track 3 akkurat gelesen (Zuversicht 74) [191B777D]
Track 4 akkurat gelesen (Zuversicht 73) [1AA27F0E]
Track 5 akkurat gelesen (Zuversicht 71) [A4E4E129]
Track 6 akkurat gelesen (Zuversicht 73) [9EB5AACE]
Track 7 akkurat gelesen (Zuversicht 73) [A08F4D1D]
Track 8 akkurat gelesen (Zuversicht 73) [BE21030E]
Track 9 akkurat gelesen (Zuversicht 70) [4219B122]

Alle Tracks wurden akkurat gelesen

Ende des Statusreports

REM GENRE Rock
REM DATE 1986
REM DISCID 7508F209
REM COMMENT “ExactAudioCopy v0.99pb4”
PERFORMER “AC/DC”
TITLE “Who Made Who”
FILE “AC DC – Who Made Who.flac” WAVE
TRACK 01 AUDIO
TITLE “Who Made Who”
PERFORMER “AC/DC”
INDEX 01 00:00:00
TRACK 02 AUDIO
TITLE “You Shook Me All Night Long”
PERFORMER “AC/DC”
INDEX 00 03:27:07
INDEX 01 03:27:55
TRACK 03 AUDIO
TITLE “D.T.”
PERFORMER “AC/DC”
INDEX 00 06:58:20
INDEX 01 06:58:67
TRACK 04 AUDIO
TITLE “Sink The Pink”
PERFORMER “AC/DC”
INDEX 00 09:55:10
INDEX 01 09:55:57
TRACK 05 AUDIO
TITLE “Ride On”
PERFORMER “AC/DC”
INDEX 00 14:10:17
INDEX 01 14:10:70
TRACK 06 AUDIO
TITLE “Hells Bells”
PERFORMER “AC/DC”
INDEX 00 20:00:67
INDEX 01 20:01:40
TRACK 07 AUDIO
TITLE “Shake Your Foundations”
PERFORMER “AC/DC”
INDEX 00 25:14:00
INDEX 01 25:14:50
TRACK 08 AUDIO
TITLE “Chase The Ace”
PERFORMER “AC/DC”
INDEX 00 29:24:42
INDEX 01 29:25:17
TRACK 09 AUDIO
TITLE “For Those About To Rock (We Salute You)”
PERFORMER “AC/DC”
INDEX 00 32:26:15
INDEX 01 32:26:62


Leave a Reply

Your email address will not be published. Required fields are marked *

Enter the text from the image below
 

This site uses Akismet to reduce spam. Learn how your comment data is processed.