AC/DC – The Razors Edge




No Cover available

Artist: AC/DC
Year: 1990/1998
Genre: Rock
Notes: Discogs
Add. Notes:
Watch Songs on: YouTube
Cover incl.: Yes
Encoder: FLAC
Bitrate: ~1000 kBit/s (44.1 kHz/16 Bit/s)
Log & Cue incl.: Yes/Yes
Size: 369,9 MB
Password: “slam” (without ” “)


All Downloads/Hosters are compatible

Download 1
KatFile.com
Turbobit.net
Rapidgator.net
FileFactory.com
Download 2
KatFile.com
Turbobit.net
Rapidgator.net
FileFactory.com

Tracklist:

1 Thunderstruck 4:52
2 Fire Your Guns 2:53
3 Moneytalks 3:45
4 The Razors Edge 4:22
5 Mistress For Christmas 3:58
6 Rock Your Heart Out 4:06
7 Are You Ready 4:10
8 Got You By The Balls 4:29
9 Shot Of Love 3:57
10 Lets Make It 3:32
11 Goodbye & Good Riddance To Bad Luck 3:14
12 If You Dare 3:11

EAC-Log, CUE-Sheed & NFO:

Click to open spoiler
Exact Audio Copy V0.99 prebeta 4 from 23. January 2008

EAC Auslese-Logdatei vom 25. Juni 2009, 11:04

AC-DC / The Razors Edge

Benutztes Laufwerk : HL-DT-STDVD-ROM GDR-H30N Adapter: 0 ID: 1

Lesemodus : Sicher
Benutze Accurate Stream : Ja
Audio Puffer abgeschaltet : Ja
Benutze C2 Fehlerinformationen : Nein

Leseoffset Korrektur : 6
Überlesen in das Lead-In und Lead-Out : Nein
Fülle fehlende Offsetsample mit Stille auf : Ja
Lösche führende und nachfolgende stille Blöcke : Nein
Null Samples gehen in CRC Berechnungen ein : Ja
Benutzte Schnittstelle : Installierte externe ASPI Schnittstelle

Benutztes Ausgabeformat : Interne WAV Routinen
Sampleformat : 44.100 Hz; 16 Bit; Stereo

TOC der ausgelesenen CD

Track | Start | Länge | Startsektor | Endsektor
——————————————————-
1 | 0:00.00 | 4:53.02 | 0 | 21976
2 | 4:53.02 | 2:53.70 | 21977 | 35021
3 | 7:46.72 | 3:45.70 | 35022 | 51966
4 | 11:32.67 | 4:22.35 | 51967 | 71651
5 | 15:55.27 | 3:59.43 | 71652 | 89619
6 | 19:54.70 | 4:06.52 | 89620 | 108121
7 | 24:01.47 | 4:10.25 | 108122 | 126896
8 | 28:11.72 | 4:30.15 | 126897 | 147161
9 | 32:42.12 | 3:56.40 | 147162 | 164901
10 | 36:38.52 | 3:32.18 | 164902 | 180819
11 | 40:10.70 | 3:13.45 | 180820 | 195339
12 | 43:24.40 | 3:08.17 | 195340 | 209456

Bereichsstatus und Fehler

Gewählter Bereich

Dateiname K:\AC-DC – Unremastered Albums\1990 – The Razors Edge\AC-DC – The Razors Edge.wav

Spitzenpegel 100.0 %
Bereichsqualität 100.0 %
Kopie CRC B1A3C738
Kopie OK

Keine Fehler aufgetreten

AccurateRip Übersicht

Track 1 akkurat gelesen (Zuversicht 15) [9883D875]
Track 2 akkurat gelesen (Zuversicht 18) [34F2167D]
Track 3 akkurat gelesen (Zuversicht 18) [10A72AD6]
Track 4 akkurat gelesen (Zuversicht 18) [9A29256B]
Track 5 akkurat gelesen (Zuversicht 18) [6B2076C6]
Track 6 akkurat gelesen (Zuversicht 17) [8DA9C125]
Track 7 akkurat gelesen (Zuversicht 18) [6B9FA030]
Track 8 akkurat gelesen (Zuversicht 17) [9FD4482F]
Track 9 akkurat gelesen (Zuversicht 17) [BB9304C1]
Track 10 akkurat gelesen (Zuversicht 17) [BE5DE7B7]
Track 11 akkurat gelesen (Zuversicht 18) [707151BF]
Track 12 akkurat gelesen (Zuversicht 18) [7033A9C7]

Alle Tracks wurden akkurat gelesen

Ende des Statusreports

REM GENRE “Hard Rock”
REM DATE 1990
REM DISCID AB0AE80C
REM COMMENT “ExactAudioCopy v0.99pb4”
PERFORMER “AC-DC”
TITLE “The Razors Edge”
FILE “AC-DC – The Razors Edge.flac” WAVE
TRACK 01 AUDIO
TITLE “Thunderstruck”
PERFORMER “AC-DC”
INDEX 01 00:00:00
TRACK 02 AUDIO
TITLE “Fire You Guns”
PERFORMER “AC-DC”
INDEX 01 04:53:02
TRACK 03 AUDIO
TITLE “Moneytalks”
PERFORMER “AC-DC”
INDEX 01 07:46:72
TRACK 04 AUDIO
TITLE “The Razors Edge”
PERFORMER “AC-DC”
INDEX 01 11:32:67
TRACK 05 AUDIO
TITLE “Mistress For Chrismas”
PERFORMER “AC-DC”
INDEX 01 15:55:27
TRACK 06 AUDIO
TITLE “Rock Your Heart Out”
PERFORMER “AC-DC”
INDEX 01 19:54:70
TRACK 07 AUDIO
TITLE “Are You Ready”
PERFORMER “AC-DC”
INDEX 01 24:01:47
TRACK 08 AUDIO
TITLE “Got You By The Balls”
PERFORMER “AC-DC”
INDEX 01 28:11:72
TRACK 09 AUDIO
TITLE “Shot Of Love”
PERFORMER “AC-DC”
INDEX 00 32:41:37
INDEX 01 32:42:12
TRACK 10 AUDIO
TITLE “Lets Me Take It”
PERFORMER “AC-DC”
INDEX 00 36:38:25
INDEX 01 36:38:52
TRACK 11 AUDIO
TITLE “Goodbye & Good Riddance To Bad Luck”
PERFORMER “AC-DC”
INDEX 00 40:09:72
INDEX 01 40:10:70
TRACK 12 AUDIO
TITLE “If You Dare”
PERFORMER “AC-DC”
INDEX 00 43:24:32
INDEX 01 43:24:40


Leave a Reply

Your email address will not be published. Required fields are marked *

Enter the text from the image below
 

This site uses Akismet to reduce spam. Learn how your comment data is processed.