AC/DC – The Best




No Cover available

Artist: AC/DC
Year: 2002
Genre: Rock
Notes: Discogs
Add. Notes:
Watch Songs on: YouTube
Cover incl.: Yes
Encoder: FLAC
Bitrate: ~1000 kBit/s (44.1 kHz/16 Bit/s)
Log & Cue incl.: Yes/Yes
Size: 1092,9 MB
Password: “slam” (without ” “)


All Downloads/Hosters are compatible

Download 1
KatFile.com
Turbobit.net
FileFactory.com
Rapidgator.net
Download 2
KatFile.com
Turbobit.net
FileFactory.com
Rapidgator.net

Tracklist:

CD 1
1.  Jailbreak
2.  T.N.T.
3.  Dirty deeds done dirt cheap
4.  Big balls
5.  Problem child
6.  Souealer
7.  Hell ain't a bad place to be
8.  Rock'n'roll damnation
9.  Down payment blues
10. Riff raff
11. What's next to the moon
12. Kicked in the teeth
13. High way to hell
14. Girls got rhythm
15. Walk all over you
16. Touch too much
17. Beating around the bush
18. Shot down in flames
19. If you want blood (You've got it)

CD 2
1.  Hells bells
2.  What do you do for money honey
3.  Back in black
4.  You shook me all night long
5.  For those about to rock (We salute you)
6.  Let's get it up
7.  Evil walks
8.  C.O.D.
9.  Rising power
10. Nervous shakedown
11. Bedlam in Belgium
12. Sink the pink
13. Who made who
14. D.T.
15. Heatseeker
16. Ruff stuff
17. Thunderstruck
18. Fire your guns
19. Moneytalks
20. Lets make it

EAC-Log, CUE-Sheed & NFO:

Click to open spoiler
Exact Audio Copy V1.0 beta 3 from 29. August 2011

EAC extraction logfile from 5. May 2012, 18:20

AC/DC / The best

Used drive : Optiarc DVD RW AD-5170A Adapter: 1 ID: 0

Read mode : Secure
Utilize accurate stream : Yes
Defeat audio cache : Yes
Make use of C2 pointers : No

Read offset correction : 48
Overread into Lead-In and Lead-Out : No
Fill up missing offset samples with silence : Yes
Delete leading and trailing silent blocks : No
Null samples used in CRC calculations : Yes
Used interface : Installed external ASPI interface

Used output format : User Defined Encoder
Selected bitrate : 128 kBit/s
Quality : High
Add ID3 tag : No
Command line compressor : C:\Program Files\Exact Audio Copy\Flac\flac.exe
Additional command line options : -V -8 %source%

TOC of the extracted CD

Track | Start | Length | Start sector | End sector
———————————————————
1 | 0:00.01 | 4:40.69 | 1 | 21069
2 | 4:40.70 | 3:35.24 | 21070 | 37218
3 | 8:16.19 | 4:12.17 | 37219 | 56135
4 | 12:28.36 | 2:35.56 | 56136 | 67816
5 | 15:04.17 | 5:47.12 | 67817 | 93853
6 | 20:51.29 | 5:15.04 | 93854 | 117482
7 | 26:06.33 | 4:18.09 | 117483 | 136841
8 | 30:24.42 | 3:38.02 | 136842 | 153193
9 | 34:02.44 | 6:05.17 | 153194 | 180585
10 | 40:07.61 | 5:13.36 | 180586 | 204096
11 | 45:21.22 | 3:33.32 | 204097 | 220103
12 | 48:54.54 | 3:54.34 | 220104 | 237687
13 | 52:49.13 | 3:28.44 | 237688 | 253331
14 | 56:17.57 | 3:23.44 | 253332 | 268600
15 | 59:41.26 | 5:09.30 | 268601 | 291805
16 | 64:50.56 | 4:26.15 | 291806 | 311770
17 | 69:16.71 | 3:56.06 | 311771 | 329476
18 | 73:13.02 | 3:19.25 | 329477 | 344426
19 | 76:32.27 | 3:06.21 | 344427 | 358397

Range status and errors

Selected range

Filename E:\Musik\ACDC-The_best-2002\AC,DC – The best CD1.wav

Peak level 100.0 %
Extraction speed 2.4 X
Range quality 100.0 %
Test CRC 4592EAAF
Copy CRC 4592EAAF
Copy OK

No errors occurred

End of status report

==== Log checksum F723EB89094C158445E51F163BB0942CE5812BFE89FA1B469E4D5B9DC1AF68FB ====

Exact Audio Copy V1.0 beta 3 from 29. August 2011

EAC extraction logfile from 5. May 2012, 19:37

AC/DC / The best

Used drive : Optiarc DVD RW AD-5170A Adapter: 1 ID: 0

Read mode : Secure
Utilize accurate stream : Yes
Defeat audio cache : Yes
Make use of C2 pointers : No

Read offset correction : 48
Overread into Lead-In and Lead-Out : No
Fill up missing offset samples with silence : Yes
Delete leading and trailing silent blocks : No
Null samples used in CRC calculations : Yes
Used interface : Installed external ASPI interface

Used output format : User Defined Encoder
Selected bitrate : 128 kBit/s
Quality : High
Add ID3 tag : No
Command line compressor : C:\Program Files\Exact Audio Copy\Flac\flac.exe
Additional command line options : -V -8 %source%

TOC of the extracted CD

Track | Start | Length | Start sector | End sector
———————————————————
1 | 0:00.01 | 5:14.64 | 1 | 23614
2 | 5:14.65 | 3:37.17 | 23615 | 39906
3 | 8:52.07 | 4:16.18 | 39907 | 59124
4 | 13:08.25 | 3:31.27 | 59125 | 74976
5 | 16:39.52 | 5:45.26 | 74977 | 100877
6 | 22:25.03 | 3:55.10 | 100878 | 118512
7 | 26:20.13 | 4:23.58 | 118513 | 138295
8 | 30:43.71 | 3:21.15 | 138296 | 153385
9 | 34:05.11 | 3:45.41 | 153386 | 170301
10 | 37:50.52 | 3:46.24 | 170302 | 187275
11 | 41:37.01 | 3:52.61 | 187276 | 204736
12 | 45:29.62 | 4:18.00 | 204737 | 224086
13 | 49:47.62 | 3:27.59 | 224087 | 239670
14 | 53:15.46 | 2:56.45 | 239671 | 252915
15 | 56:12.16 | 3:51.28 | 252916 | 270268
16 | 60:03.44 | 4:30.12 | 270269 | 290530
17 | 64:33.56 | 4:53.56 | 290531 | 312561
18 | 69:27.37 | 2:54.37 | 312562 | 325648
19 | 72:21.74 | 3:47.65 | 325649 | 342738
20 | 76:09.64 | 3:32.51 | 342739 | 358689

Range status and errors

Selected range

Filename E:\Musik\ACDC-The_best-2002\AC,DC – The best CD2.wav

Peak level 100.0 %
Extraction speed 2.4 X
Range quality 100.0 %
Test CRC 4B3C42DE
Copy CRC 4B3C42DE
Copy OK

No errors occurred

AccurateRip summary

Track 1 accurately ripped (confidence 1) [CBAA2734] (AR v1)
Track 2 accurately ripped (confidence 1) [2AAB9E73] (AR v1)
Track 3 accurately ripped (confidence 1) [6E8051E4] (AR v1)
Track 4 accurately ripped (confidence 1) [03F0210C] (AR v1)
Track 5 accurately ripped (confidence 1) [163D97F1] (AR v1)
Track 6 accurately ripped (confidence 1) [27B27A1F] (AR v1)
Track 7 accurately ripped (confidence 1) [0FA7D526] (AR v1)
Track 8 accurately ripped (confidence 1) [847ABD88] (AR v1)
Track 9 accurately ripped (confidence 1) [B5554855] (AR v1)
Track 10 accurately ripped (confidence 1) [8312D5EE] (AR v1)
Track 11 accurately ripped (confidence 1) [ED871053] (AR v1)
Track 12 accurately ripped (confidence 1) [A2E42F03] (AR v1)
Track 13 accurately ripped (confidence 1) [7F9E35AF] (AR v1)
Track 14 accurately ripped (confidence 1) [9C13912E] (AR v1)
Track 15 accurately ripped (confidence 1) [814F82B9] (AR v1)
Track 16 accurately ripped (confidence 1) [1E6A767D] (AR v1)
Track 17 accurately ripped (confidence 1) [2E8CBED4] (AR v1)
Track 18 accurately ripped (confidence 1) [0AF7B89C] (AR v1)
Track 19 accurately ripped (confidence 1) [5A916F05] (AR v1)
Track 20 cannot be verified as accurate (confidence 1) [38341F5A], AccurateRip returned [BB18DA03] (AR v2)

19 трек(и) скопированы точно
1 трек(и) не удалось проверить на точность

Some tracks could not be verified as accurate

End of status report

==== Log checksum 530B91726D109C2C41915E71A269E9FD978F6F6114FB11E1B2EBC79E42392051 ====

REM GENRE “Heavy Metal”
REM DATE 2002
REM DISCID 3212AA13
REM COMMENT “ExactAudioCopy v1.0b3”
PERFORMER “AC/DC”
TITLE “The best”
FILE “AC,DC – The best CD1.flac” WAVE
TRACK 01 AUDIO
TITLE “Jailbreak”
PERFORMER “AC/DC”
ISRC 000000000000
INDEX 00 00:00:00
INDEX 01 00:00:01
TRACK 02 AUDIO
TITLE “T.N.T.”
PERFORMER “AC/DC”
ISRC 000000000000
FLAGS DCP
INDEX 01 04:40:70
TRACK 03 AUDIO
TITLE “Dirty deeds done dirt cheap”
PERFORMER “AC/DC”
ISRC 000000000000
INDEX 01 08:16:19
TRACK 04 AUDIO
TITLE “Big balls”
PERFORMER “AC/DC”
ISRC 000000000000
INDEX 01 12:28:36
TRACK 05 AUDIO
TITLE “Problem child”
PERFORMER “AC/DC”
ISRC 000000000000
INDEX 01 15:04:17
TRACK 06 AUDIO
TITLE “Souealer”
PERFORMER “AC/DC”
ISRC 000000000000
INDEX 01 20:51:29
TRACK 07 AUDIO
TITLE “Hell ain’t a bad place to be”
PERFORMER “AC/DC”
ISRC 000000000000
INDEX 01 26:06:33
TRACK 08 AUDIO
TITLE “Rock’n’roll damnation”
PERFORMER “AC/DC”
ISRC 000000000000
INDEX 01 30:24:42
TRACK 09 AUDIO
TITLE “Down payment blues”
PERFORMER “AC/DC”
ISRC 000000000000
INDEX 01 34:02:44
TRACK 10 AUDIO
TITLE “Riff raff”
PERFORMER “AC/DC”
ISRC 000000000000
INDEX 01 40:07:61
TRACK 11 AUDIO
TITLE “What’s next to the moon”
PERFORMER “AC/DC”
ISRC 000000000000
INDEX 01 45:21:22
TRACK 12 AUDIO
TITLE “Kicked in the teeth”
PERFORMER “AC/DC”
ISRC 000000000000
INDEX 01 48:54:54
TRACK 13 AUDIO
TITLE “High way to hell”
PERFORMER “AC/DC”
ISRC 000000000000
FLAGS DCP
INDEX 01 52:49:13
TRACK 14 AUDIO
TITLE “Girls got rhythm”
PERFORMER “AC/DC”
ISRC 000000000000
INDEX 01 56:17:57
TRACK 15 AUDIO
TITLE “Walk all over you”
PERFORMER “AC/DC”
ISRC 000000000000
INDEX 01 59:41:26
TRACK 16 AUDIO
TITLE “Touch too much”
PERFORMER “AC/DC”
ISRC 000000000000
FLAGS DCP
INDEX 01 64:50:56
TRACK 17 AUDIO
TITLE “Beating around the bush”
PERFORMER “AC/DC”
ISRC 000000000000
INDEX 01 69:16:71
TRACK 18 AUDIO
TITLE “Shot down in flames”
PERFORMER “AC/DC”
ISRC 000000000000
FLAGS DCP
INDEX 01 73:13:02
TRACK 19 AUDIO
TITLE “If you want blood (You’ve got it)”
PERFORMER “AC/DC”
ISRC 000000000000
INDEX 01 76:32:27

REM GENRE “Heavy Metal”
REM DATE 2002
REM DISCID 3412AE14
REM COMMENT “ExactAudioCopy v1.0b3”
PERFORMER “AC/DC”
TITLE “The best”
FILE “AC,DC – The best CD2.flac” WAVE
TRACK 01 AUDIO
TITLE “Hells bells”
PERFORMER “AC/DC”
ISRC 000000000000
INDEX 00 00:00:00
INDEX 01 00:00:01
TRACK 02 AUDIO
TITLE “What do you do for money honey”
PERFORMER “AC/DC”
ISRC 000000000000
FLAGS DCP
INDEX 01 05:14:65
TRACK 03 AUDIO
TITLE “Back in black”
PERFORMER “AC/DC”
ISRC 000000000000
INDEX 01 08:52:07
TRACK 04 AUDIO
TITLE “You shook me all night long”
PERFORMER “AC/DC”
ISRC 000000000000
FLAGS DCP
INDEX 01 13:08:25
TRACK 05 AUDIO
TITLE “For those about to rock (We salute you)”
PERFORMER “AC/DC”
ISRC 000000000000
FLAGS DCP
INDEX 01 16:39:52
TRACK 06 AUDIO
TITLE “Let’s get it up”
PERFORMER “AC/DC”
ISRC 000000000000
INDEX 01 22:25:03
TRACK 07 AUDIO
TITLE “Evil walks”
PERFORMER “AC/DC”
ISRC 000000000000
FLAGS DCP
INDEX 01 26:20:13
TRACK 08 AUDIO
TITLE “C.O.D.”
PERFORMER “AC/DC”
ISRC 000000000000
INDEX 01 30:43:71
TRACK 09 AUDIO
TITLE “Rising power”
PERFORMER “AC/DC”
ISRC 000000000000
INDEX 01 34:05:11
TRACK 10 AUDIO
TITLE “Nervous shakedown”
PERFORMER “AC/DC”
ISRC 000000000000
FLAGS DCP
INDEX 01 37:50:52
TRACK 11 AUDIO
TITLE “Bedlam in Belgium”
PERFORMER “AC/DC”
ISRC 000000000000
INDEX 01 41:37:01
TRACK 12 AUDIO
TITLE “Sink the pink”
PERFORMER “AC/DC”
ISRC 000000000000
INDEX 01 45:29:62
TRACK 13 AUDIO
TITLE “Who made who”
PERFORMER “AC/DC”
ISRC 000000000000
FLAGS DCP
INDEX 01 49:47:62
TRACK 14 AUDIO
TITLE “D.T.”
PERFORMER “AC/DC”
ISRC 000000000000
FLAGS DCP
INDEX 01 53:15:46
TRACK 15 AUDIO
TITLE “Heatseeker”
PERFORMER “AC/DC”
ISRC 000000000000
FLAGS DCP
INDEX 01 56:12:16
TRACK 16 AUDIO
TITLE “Ruff stuff”
PERFORMER “AC/DC”
ISRC 000000000000
INDEX 01 60:03:44
TRACK 17 AUDIO
TITLE “Thunderstruck”
PERFORMER “AC/DC”
ISRC 000000000000
FLAGS DCP
INDEX 01 64:33:56
TRACK 18 AUDIO
TITLE “Fire your guns”
PERFORMER “AC/DC”
ISRC 000000000000
FLAGS DCP
INDEX 01 69:27:37
TRACK 19 AUDIO
TITLE “Moneytalks”
PERFORMER “AC/DC”
ISRC 000000000000
FLAGS DCP
INDEX 01 72:21:74
TRACK 20 AUDIO
TITLE “Lets make it”
PERFORMER “AC/DC”
ISRC 000000000000
FLAGS DCP
INDEX 01 76:09:64


Leave a Reply

Your email address will not be published. Required fields are marked *

This site uses Akismet to reduce spam. Learn how your comment data is processed.