AC/DC – T.N.T.




No Cover available

Artist: AC/DC
Year: 1975/1989
Genre: Rock
Notes: Discogs
Add. Notes:
Watch Songs on: YouTube
Cover incl.: Yes
Encoder: FLAC
Bitrate: ~900 kBit/s (44.1 kHz/16 Bit/s)
Log & Cue incl.: Yes/Yes
Size: 268,9 MB
Password: “slam” (without ” “)


All Downloads/Hosters are compatible

Download 1
KatFile.com
Turbobit.net
Rapidgator.net
FileFactory.com
Download 2
KatFile.com
Turbobit.net
Rapidgator.net
FileFactory.com

Tracklist:

1 It's A Long Way To The Top (If You Wanna Rock 'n' 
Roll) 5:17
2 Rock 'N' Roll Singer 5:06
3 The Jack 5:53
4 Live Wire 5:51
5 T.N.T. 3:36
6 Rocker 2:52
7 Can I Sit Next To You Girl 4:12
8 High Voltage 4:20
9 School Days 5:24

EAC-Log, CUE-Sheed & NFO:

Click to open spoiler
Exact Audio Copy V1.0 beta 3 from 29. August 2011

EAC extraction logfile from 23. January 2015, 11:58

AC-DC / T.N.T. (Albert 465262 2)

Used drive : PLEXTOR DVDR PX-760A Adapter: 1 ID: 0

Read mode : Secure
Utilize accurate stream : Yes
Defeat audio cache : Yes
Make use of C2 pointers : No

Read offset correction : 30
Overread into Lead-In and Lead-Out : No
Fill up missing offset samples with silence : Yes
Delete leading and trailing silent blocks : No
Null samples used in CRC calculations : Yes
Used interface : Native Win32 interface for Win NT & 2000

Used output format : User Defined Encoder
Selected bitrate : 1024 kBit/s
Quality : High
Add ID3 tag : No
Command line compressor : C:\Program Files (x86)\Exact Audio Copy\Flac\flac.exe
Additional command line options : -V -8 -T “Date=%year%” -T “Genre=%genre%” %source%

TOC of the extracted CD

Track | Start | Length | Start sector | End sector
———————————————————
1 | 0:00.00 | 5:16.62 | 0 | 23761
2 | 5:16.62 | 5:05.63 | 23762 | 46699
3 | 10:22.50 | 5:52.40 | 46700 | 73139
4 | 16:15.15 | 5:51.17 | 73140 | 99481
5 | 22:06.32 | 3:36.18 | 99482 | 115699
6 | 25:42.50 | 2:51.57 | 115700 | 128581
7 | 28:34.32 | 4:12.23 | 128582 | 147504
8 | 32:46.55 | 4:19.60 | 147505 | 166989
9 | 37:06.40 | 5:23.40 | 166990 | 191254

Range status and errors

Selected range

Filename F:\bki71\AC-DC\AC-DC – T.N.T. (Albert 465262 2).wav

Peak level 95.5 %
Extraction speed 2.5 X
Range quality 100.0 %
Test CRC F09E03DC
Copy CRC F09E03DC
Copy OK

No errors occurred

AccurateRip summary

Track 1 accurately ripped (confidence 2) [CF6FF07B] (AR v2)
Track 2 accurately ripped (confidence 2) [21FEFDA0] (AR v2)
Track 3 accurately ripped (confidence 2) [E316AFBC] (AR v2)
Track 4 accurately ripped (confidence 2) [918AA068] (AR v2)
Track 5 accurately ripped (confidence 2) [722017DB] (AR v2)
Track 6 accurately ripped (confidence 2) [DC7E213C] (AR v2)
Track 7 accurately ripped (confidence 2) [E85D9A09] (AR v2)
Track 8 accurately ripped (confidence 2) [AF160CDD] (AR v2)
Track 9 accurately ripped (confidence 2) [BFF6D0C2] (AR v2)

All tracks accurately ripped

End of status report

==== Log checksum 7144178AC8D45FE0B6F922FD24EF60E935B1AAF2A9BE67D95632EFDE1FF29649 ====

REM GENRE “Hard Rock”
REM DATE 1975
REM DISCID 8209F609
REM COMMENT “ExactAudioCopy v1.0b3”
PERFORMER “AC-DC”
TITLE “T.N.T. (Albert 465262 2)”
FILE “AC-DC – T.N.T. (Albert 465262 2).flac” WAVE
TRACK 01 AUDIO
TITLE “It’s A Long Way To The Top (If You Wanna Rock ‘N’ Roll)”
PERFORMER “AC-DC”
INDEX 01 00:00:00
TRACK 02 AUDIO
TITLE “Rock ‘N’ Roll Singer”
PERFORMER “AC-DC”
INDEX 01 05:16:62
TRACK 03 AUDIO
TITLE “The Jack”
PERFORMER “AC-DC”
INDEX 00 10:21:60
INDEX 01 10:22:50
TRACK 04 AUDIO
TITLE “Live Wire”
PERFORMER “AC-DC”
INDEX 01 16:15:15
TRACK 05 AUDIO
TITLE “T.N.T.”
PERFORMER “AC-DC”
INDEX 01 22:06:32
TRACK 06 AUDIO
TITLE “Rocker”
PERFORMER “AC-DC”
INDEX 00 25:41:55
INDEX 01 25:42:50
TRACK 07 AUDIO
TITLE “Can I Sit Next To You Girl”
PERFORMER “AC-DC”
INDEX 01 28:34:32
TRACK 08 AUDIO
TITLE “High Voltage”
PERFORMER “AC-DC”
INDEX 00 32:45:47
INDEX 01 32:46:55
TRACK 09 AUDIO
TITLE “School Days”
PERFORMER “AC-DC”
INDEX 01 37:06:40


0

Publication author

offline 7 days

Chaos

3
Comments: 4Publics: 3565Registration: 02-02-2019
Spread the Download

Leave a Reply

Your email address will not be published. Required fields are marked *

Enter the text from the image below
 

This site uses Akismet to reduce spam. Learn how your comment data is processed.