AC/DC – On The Wall




No Cover available

Artist: AC/DC
Year: 1985/1992
Genre: Rock
Notes: Discogs
Add. Notes:
Watch Songs on: YouTube
Cover incl.: Yes
Encoder: FLAC
Bitrate: ~900 kBit/s (44.1 kHz/16 Bit/s)
Log & Cue incl.: Yes/Yes
Size: 347,4 MB
Password: “slam” (without ” “)


All Downloads/Hosters are compatible

Download 1
KatFile.com
Turbobit.net
Rapidgator.net
FileFactory.com
Download 2
KatFile.com
Turbobit.net
Rapidgator.net
FileFactory.com

Tracklist:

1 Fly On The Wall 3:43
2 Shake Your Foundations 4:08
3 First Blood 3:40
4 Danger 4:22
5 Sink The Pink 4:14
6 Playing With Girls 3:44
7 Stand Up 3:53
8 Hell Or High Water 4:31
9 Back In Business 4:22
10 Send For The Man 3:26

EAC-Log, CUE-Sheed & NFO:

Click to open spoiler
Exact Audio Copy V0.99 prebeta 5 from 4. May 2009

EAC Auslese-Logdatei vom 13. Juli 2010, 17:08

AC/DC / Fly On The Wall

Benutztes Laufwerk : HL-DT-STDVD-ROM GDR-H30N Adapter: 0 ID: 1

Lesemodus : Sicher
Benutze Accurate Stream : Ja
Audio Puffer abgeschaltet : Ja
Benutze C2 Fehlerinformationen : Nein

Leseoffset Korrektur : 6
Überlesen in das Lead-In und Lead-Out : Nein
Fülle fehlende Offsetsample mit Stille auf : Ja
Lösche führende und nachfolgende stille Blöcke : Nein
Null Samples gehen in CRC Berechnungen ein : Ja
Benutzte Schnittstelle : Installierte externe ASPI Schnittstelle

Benutztes Ausgabeformat : Interne WAV Routinen
Sampleformat : 44.100 Hz; 16 Bit; Stereo

TOC der ausgelesenen CD

Track | Start | Länge | Startsektor | Endsektor
——————————————————-
1 | 0:00.00 | 3:44.27 | 0 | 16826
2 | 3:44.27 | 4:10.48 | 16827 | 35624
3 | 7:55.00 | 3:45.70 | 35625 | 52569
4 | 11:40.70 | 4:22.47 | 52570 | 72266
5 | 16:03.42 | 4:15.20 | 72267 | 91411
6 | 20:18.62 | 3:44.65 | 91412 | 108276
7 | 24:03.52 | 3:53.28 | 108277 | 125779
8 | 27:57.05 | 4:32.25 | 125780 | 146204
9 | 32:29.30 | 4:24.32 | 146205 | 166036
10 | 36:53.62 | 3:24.33 | 166037 | 181369

Bereichsstatus und Fehler

Gewählter Bereich

Dateiname L:\Audi\acdis\Original Albums\1985 – Fly On The Wall\AC DC – Fly On The Wall.wav

Spitzenpegel 93.3 %
Bereichsqualität 100.0 %
Kopie CRC 709F0A2D
Kopie OK

Keine Fehler aufgetreten

AccurateRip Übersicht

Track 1 akkurat gelesen (Zuversicht 63) [0C044CDF]
Track 2 akkurat gelesen (Zuversicht 62) [6EE44A5E]
Track 3 akkurat gelesen (Zuversicht 63) [89DA4A98]
Track 4 akkurat gelesen (Zuversicht 63) [3FDC5A33]
Track 5 akkurat gelesen (Zuversicht 62) [9D0CE849]
Track 6 akkurat gelesen (Zuversicht 63) [49A2BE13]
Track 7 akkurat gelesen (Zuversicht 62) [570B8DDC]
Track 8 akkurat gelesen (Zuversicht 61) [CD506AB9]
Track 9 akkurat gelesen (Zuversicht 63) [35224A7D]
Track 10 akkurat gelesen (Zuversicht 61) [74B5966E]

Alle Tracks wurden akkurat gelesen

Ende des Statusreports

REM GENRE “Hard Rock”
REM DATE 1985
REM DISCID 7F09720A
REM COMMENT “ExactAudioCopy v0.99pb5”
PERFORMER “AC/DC”
TITLE “Fly On The Wall”
FILE “AC DC – Fly On The Wall.flac” WAVE
TRACK 01 AUDIO
TITLE “Fly On The Wall”
PERFORMER “AC/DC”
INDEX 01 00:00:00
TRACK 02 AUDIO
TITLE “Shake Your Foundations”
PERFORMER “AC/DC”
INDEX 00 03:42:12
INDEX 01 03:44:27
TRACK 03 AUDIO
TITLE “First Blood”
PERFORMER “AC/DC”
INDEX 00 07:52:45
INDEX 01 07:55:00
TRACK 04 AUDIO
TITLE “Danger”
PERFORMER “AC/DC”
INDEX 00 11:38:45
INDEX 01 11:40:70
TRACK 05 AUDIO
TITLE “Sink The Pink”
PERFORMER “AC/DC”
INDEX 00 16:00:60
INDEX 01 16:03:42
TRACK 06 AUDIO
TITLE “Playing With Girls”
PERFORMER “AC/DC”
INDEX 00 20:16:22
INDEX 01 20:18:62
TRACK 07 AUDIO
TITLE “Stand Up”
PERFORMER “AC/DC”
INDEX 00 24:00:52
INDEX 01 24:03:52
TRACK 08 AUDIO
TITLE “Hell Or High Water”
PERFORMER “AC/DC”
INDEX 00 27:52:57
INDEX 01 27:57:05
TRACK 09 AUDIO
TITLE “Back In Business”
PERFORMER “AC/DC”
INDEX 00 32:27:12
INDEX 01 32:29:30
TRACK 10 AUDIO
TITLE “Send For The Man”
PERFORMER “AC/DC”
INDEX 00 36:50:30
INDEX 01 36:53:62


Leave a Reply

Your email address will not be published. Required fields are marked *

Enter the text from the image below
 

This site uses Akismet to reduce spam. Learn how your comment data is processed.