AC/DC – Live (Special Edition)




No Cover available

Artist: AC/DC
Year: 1992
Genre: Rock
Notes: Discogs
Add. Notes: Special Edition
Watch Songs on: YouTube
Cover incl.: Yes
Encoder: FLAC
Bitrate: ~1000 kBit/s (44.1 kHz/16 Bit/s)
Log & Cue incl.: Yes/Yes
Size: 1212,8 MB
Password: “slam” (without ” “)


All Downloads/Hosters are compatible

Download 1
KatFile.com
Turbobit.net
Rapidgator.net
FileFactory.com
Download 2
KatFile.com
Turbobit.net
Rapidgator.net
FileFactory.com

Tracklist:

1-1 Thunderstruck 6:34
1-2 Shoot To Thrill 5:23
1-3 Back In Black 4:28
1-4 Sin City 5:40
1-5 Who Made Who 5:16
1-6 Heatseeker 3:37
1-7 Fire Your Guns 3:40
1-8 Jailbreak 14:43
1-9 The Jack 6:56
1-10 The Razors Edge 4:35
1-11 Dirty Deeds Done Dirt Cheap 5:02
1-12 Moneytalks 4:21

2-1 Hells Bells 6:01
2-2 Are You Ready 4:34
2-3 Thats The Way I Wanna Rock N Roll 3:57
2-4 High Voltage 10:32
2-5 You Shook Me All Night Long 3:54
2-6 Whole Lotta Rosie 4:30
2-7 Let There Be Rock 12:17
2-8 Bonny 1:03
2-9 Highway To Hell 3:53
2-10 T.N.T. 3:48
2-11 For Those About To Rock (We Salute You) 7:09

EAC-Log, CUE-Sheed & NFO:

Click to open spoiler
Exact Audio Copy V0.99 prebeta 5 from 4. May 2009

EAC Auslese-Logdatei vom 22. Juni 2010, 18:44

AC DC / Live (Disc 1)

Benutztes Laufwerk : HL-DT-STDVD-ROM GDR-H30N Adapter: 0 ID: 1

Lesemodus : Sicher
Benutze Accurate Stream : Ja
Audio Puffer abgeschaltet : Ja
Benutze C2 Fehlerinformationen : Nein

Leseoffset Korrektur : 6
Überlesen in das Lead-In und Lead-Out : Nein
Fülle fehlende Offsetsample mit Stille auf : Ja
Lösche führende und nachfolgende stille Blöcke : Nein
Null Samples gehen in CRC Berechnungen ein : Ja
Benutzte Schnittstelle : Installierte externe ASPI Schnittstelle

Benutztes Ausgabeformat : Interne WAV Routinen
Sampleformat : 44.100 Hz; 16 Bit; Stereo

TOC der ausgelesenen CD

Track | Start | Länge | Startsektor | Endsektor
——————————————————-
1 | 0:00.00 | 6:35.15 | 0 | 29639
2 | 6:35.15 | 5:23.25 | 29640 | 53889
3 | 11:58.40 | 4:28.05 | 53890 | 73994
4 | 16:26.45 | 5:40.07 | 73995 | 99501
5 | 22:06.52 | 5:16.13 | 99502 | 123214
6 | 27:22.65 | 3:36.72 | 123215 | 139486
7 | 30:59.62 | 3:41.38 | 139487 | 156099
8 | 34:41.25 | 14:42.45 | 156100 | 222294
9 | 49:23.70 | 6:57.07 | 222295 | 253576
10 | 56:21.02 | 4:35.65 | 253577 | 274266
11 | 60:56.67 | 5:02.68 | 274267 | 296984
12 | 65:59.60 | 4:19.15 | 296985 | 316424

Bereichsstatus und Fehler

Gewählter Bereich

Dateiname L:\Audi\ACDC\Original Albums\1992 – LIVE\AC DC – Live (Disc 1).wav

Spitzenpegel 100.0 %
Bereichsqualität 100.0 %
Kopie CRC F9259554
Kopie OK

Keine Fehler aufgetreten

AccurateRip Übersicht

Track 1 akkurat gelesen (Zuversicht 200) [8FDF9BFF]
Track 2 akkurat gelesen (Zuversicht 200) [F5436579]
Track 3 akkurat gelesen (Zuversicht 200) [45010137]
Track 4 akkurat gelesen (Zuversicht 200) [FE9BE4EC]
Track 5 akkurat gelesen (Zuversicht 200) [2C1D8A70]
Track 6 akkurat gelesen (Zuversicht 200) [C675E1D4]
Track 7 akkurat gelesen (Zuversicht 200) [A8F66696]
Track 8 akkurat gelesen (Zuversicht 200) [BF9E2380]
Track 9 akkurat gelesen (Zuversicht 200) [54548C5C]
Track 10 akkurat gelesen (Zuversicht 200) [CB20630B]
Track 11 akkurat gelesen (Zuversicht 200) [5215C43F]
Track 12 akkurat gelesen (Zuversicht 200) [E3210868]

Alle Tracks wurden akkurat gelesen

Ende des Statusreports

Exact Audio Copy V0.99 prebeta 5 from 4. May 2009

EAC Auslese-Logdatei vom 22. Juni 2010, 18:53

AC DC / Live (Disc 2)

Benutztes Laufwerk : HL-DT-STDVD-ROM GDR-H30N Adapter: 0 ID: 1

Lesemodus : Sicher
Benutze Accurate Stream : Ja
Audio Puffer abgeschaltet : Ja
Benutze C2 Fehlerinformationen : Nein

Leseoffset Korrektur : 6
Überlesen in das Lead-In und Lead-Out : Nein
Fülle fehlende Offsetsample mit Stille auf : Ja
Lösche führende und nachfolgende stille Blöcke : Nein
Null Samples gehen in CRC Berechnungen ein : Ja
Benutzte Schnittstelle : Installierte externe ASPI Schnittstelle

Benutztes Ausgabeformat : Interne WAV Routinen
Sampleformat : 44.100 Hz; 16 Bit; Stereo

TOC der ausgelesenen CD

Track | Start | Länge | Startsektor | Endsektor
——————————————————-
1 | 0:00.00 | 6:02.00 | 0 | 27149
2 | 6:02.00 | 4:33.70 | 27150 | 47694
3 | 10:35.70 | 3:57.30 | 47695 | 65499
4 | 14:33.25 | 10:33.00 | 65500 | 112974
5 | 25:06.25 | 3:55.00 | 112975 | 130599
6 | 29:01.25 | 4:30.50 | 130600 | 150899
7 | 33:32.00 | 12:17.05 | 150900 | 206179
8 | 45:49.05 | 1:03.20 | 206180 | 210924
9 | 46:52.25 | 3:53.62 | 210925 | 228461
10 | 50:46.12 | 3:47.63 | 228462 | 245549
11 | 54:34.00 | 7:08.12 | 245550 | 277661

Bereichsstatus und Fehler

Gewählter Bereich

Dateiname L:\Audi\ACDC\Original Albums\1992 – LIVE\AC DC – Live (Disc 2).wav

Spitzenpegel 100.0 %
Bereichsqualität 100.0 %
Kopie CRC 30BA34F4
Kopie OK

Keine Fehler aufgetreten

AccurateRip Übersicht

Track 1 akkurat gelesen (Zuversicht 200) [29955A7E]
Track 2 akkurat gelesen (Zuversicht 200) [79988574]
Track 3 akkurat gelesen (Zuversicht 200) [BEF2B8E2]
Track 4 akkurat gelesen (Zuversicht 200) [FF438997]
Track 5 akkurat gelesen (Zuversicht 200) [EB2D246E]
Track 6 akkurat gelesen (Zuversicht 200) [3EE2F2E3]
Track 7 akkurat gelesen (Zuversicht 200) [39DC187C]
Track 8 akkurat gelesen (Zuversicht 200) [6FED6E7F]
Track 9 akkurat gelesen (Zuversicht 200) [0CDFBFC1]
Track 10 akkurat gelesen (Zuversicht 200) [E7C12AC1]
Track 11 akkurat gelesen (Zuversicht 200) [439F90AF]

Alle Tracks wurden akkurat gelesen

Ende des Statusreports

REM GENRE Rock
REM DATE 1992
REM DISCID C1107B0C
REM COMMENT “ExactAudioCopy v0.99pb5”
PERFORMER “AC DC”
TITLE “Live (Disc 1)”
FILE “AC DC – Live (Disc 1).flac” WAVE
TRACK 01 AUDIO
TITLE “Thunderstruck”
PERFORMER “AC DC”
INDEX 01 00:00:00
TRACK 02 AUDIO
TITLE “Shoot To Thrill”
PERFORMER “AC DC”
INDEX 01 06:35:15
TRACK 03 AUDIO
TITLE “Back In Black”
PERFORMER “AC DC”
INDEX 00 11:56:50
INDEX 01 11:58:40
TRACK 04 AUDIO
TITLE “Sin City”
PERFORMER “AC DC”
INDEX 00 16:25:50
INDEX 01 16:26:45
TRACK 05 AUDIO
TITLE “Who Made Who”
PERFORMER “AC DC”
INDEX 01 22:06:52
TRACK 06 AUDIO
TITLE “Heatseeker”
PERFORMER “AC DC”
INDEX 01 27:22:65
TRACK 07 AUDIO
TITLE “Fire Your Guns”
PERFORMER “AC DC”
INDEX 00 30:59:00
INDEX 01 30:59:62
TRACK 08 AUDIO
TITLE “Jailbreak”
PERFORMER “AC DC”
INDEX 00 34:38:37
INDEX 01 34:41:25
TRACK 09 AUDIO
TITLE “The Jack”
PERFORMER “AC DC”
INDEX 01 49:23:70
TRACK 10 AUDIO
TITLE “The Razors Edge”
PERFORMER “AC DC”
INDEX 01 56:21:02
TRACK 11 AUDIO
TITLE “Dirty Deeds Done Dirt Cheap”
PERFORMER “AC DC”
INDEX 01 60:56:67
TRACK 12 AUDIO
TITLE “Moneytalks”
PERFORMER “AC DC”
INDEX 01 65:59:60

REM GENRE Rock
REM DATE 1992
REM DISCID 960E760B
REM COMMENT “ExactAudioCopy v0.99pb5”
PERFORMER “AC DC”
TITLE “Live (Disc 2)”
FILE “AC DC – Live (Disc 2).flac” WAVE
TRACK 01 AUDIO
TITLE “Hells Bells”
PERFORMER “AC DC”
INDEX 01 00:00:00
TRACK 02 AUDIO
TITLE “Are You Ready”
PERFORMER “AC DC”
INDEX 00 06:01:30
INDEX 01 06:02:00
TRACK 03 AUDIO
TITLE “That’s The Way I Wanna Rock ‘N’ Roll”
PERFORMER “AC DC”
INDEX 00 10:34:50
INDEX 01 10:35:70
TRACK 04 AUDIO
TITLE “High Voltage”
PERFORMER “AC DC”
INDEX 00 14:32:65
INDEX 01 14:33:25
TRACK 05 AUDIO
TITLE “You Shook Me All Night Long”
PERFORMER “AC DC”
INDEX 01 25:06:25
TRACK 06 AUDIO
TITLE “Whole Lotta Rosie”
PERFORMER “AC DC”
INDEX 00 28:59:55
INDEX 01 29:01:25
TRACK 07 AUDIO
TITLE “Let There Be Rock”
PERFORMER “AC DC”
INDEX 00 33:31:25
INDEX 01 33:32:00
TRACK 08 AUDIO
TITLE “Bonny”
PERFORMER “AC DC”
INDEX 00 45:48:12
INDEX 01 45:49:05
TRACK 09 AUDIO
TITLE “Highway To Hell”
PERFORMER “AC DC”
INDEX 01 46:52:25
TRACK 10 AUDIO
TITLE “T.N.T.”
PERFORMER “AC DC”
INDEX 00 50:45:42
INDEX 01 50:46:12
TRACK 11 AUDIO
TITLE “For Those About To Rock (We Salute You)”
PERFORMER “AC DC”
INDEX 01 54:34:00


Leave a Reply

Your email address will not be published. Required fields are marked *

Enter the text from the image below
 

This site uses Akismet to reduce spam. Learn how your comment data is processed.