AC/DC – Let There Be Rock




No Cover available


Artist: AC/DC
Year: 1977/1989
Genre: Rock
Notes: Discogs
Add. Notes:
Watch Songs on: YouTube
Cover incl.: Yes
Encoder: FLAC
Bitrate: ~900 kBit/s (44.1 kHz/16 Bit/s)
Log & Cue incl.: Yes/Yes
Size: 273,6 MB
Password: “slam” (without ” “)


All Downloads/Hosters are compatible

Download 1
KatFile.com
Turbobit.net
Rapidgator.net
FileFactory.com
Download 2
KatFile.com
Turbobit.net
Rapidgator.net
FileFactory.com

Tracklist:

1 Go Down 5:22
2 Dog Eat Dog 3:32
3 Let There Be Rock 6:09
4 Bad Boy Boogie 4:29
5 Overdose 6:07
6 Crabsody In Blue 4:43
7 Hell Ain't A Bad Place To Be 4:19
8 Whole Lotta Rosie 5:22

EAC-Log, CUE-Sheed & NFO:

Click to open spoiler
Exact Audio Copy V1.0 beta 3 from 29. August 2011

EAC extraction logfile from 23. January 2015, 12:39

AC-DC / Let There Be Rock (Albert 465256 2)

Used drive : PIONEER DVD-RW DVR-215 Adapter: 0 ID: 0

Read mode : Secure
Utilize accurate stream : Yes
Defeat audio cache : Yes
Make use of C2 pointers : No

Read offset correction : 48
Overread into Lead-In and Lead-Out : No
Fill up missing offset samples with silence : Yes
Delete leading and trailing silent blocks : No
Null samples used in CRC calculations : Yes
Used interface : Native Win32 interface for Win NT & 2000

Used output format : User Defined Encoder
Selected bitrate : 1024 kBit/s
Quality : High
Add ID3 tag : No
Command line compressor : C:\Program Files (x86)\Exact Audio Copy\Flac\flac.exe
Additional command line options : -V -8 -T “Date=%year%” -T “Genre=%genre%” %source%

TOC of the extracted CD

Track | Start | Length | Start sector | End sector
———————————————————
1 | 0:00.00 | 5:22.15 | 0 | 24164
2 | 5:22.15 | 3:32.67 | 24165 | 40131
3 | 8:55.07 | 6:09.30 | 40132 | 67836
4 | 15:04.37 | 4:29.00 | 67837 | 88011
5 | 19:33.37 | 6:07.63 | 88012 | 115599
6 | 25:41.25 | 4:43.65 | 115600 | 136889
7 | 30:25.15 | 4:19.42 | 136890 | 156356
8 | 34:44.57 | 5:22.35 | 156357 | 180541

Range status and errors

Selected range

Filename F:\bki71\AC-DC\AC-DC – Let There Be Rock (Albert 465256 2).wav

Peak level 95.5 %
Extraction speed 7.0 X
Range quality 100.0 %
Test CRC 7935D9E2
Copy CRC 7935D9E2
Copy OK

No errors occurred

AccurateRip summary

Track 1 accurately ripped (confidence 12) [D5E8BA82] (AR v2)
Track 2 accurately ripped (confidence 12) [603355E8] (AR v2)
Track 3 accurately ripped (confidence 12) [9D18A492] (AR v2)
Track 4 accurately ripped (confidence 12) [32BDDB93] (AR v2)
Track 5 accurately ripped (confidence 11) [81CD4F45] (AR v2)
Track 6 accurately ripped (confidence 12) [FDBC71A8] (AR v2)
Track 7 accurately ripped (confidence 12) [82D3661D] (AR v2)
Track 8 accurately ripped (confidence 12) [05903246] (AR v2)

All tracks accurately ripped

End of status report

==== Log checksum 1E73BDB3064FD0A86D83063BCC87714A820DE1F6E6E3568A1EF631D25C98D252 ====

REM GENRE “Hard Rock”
REM DATE 1977
REM DISCID 66096708
REM COMMENT “ExactAudioCopy v1.0b3”
PERFORMER “AC-DC”
TITLE “Let There Be Rock (Albert 465256 2)”
FILE “AC-DC – Let There Be Rock (Albert 465256 2).flac” WAVE
TRACK 01 AUDIO
TITLE “Go Down”
PERFORMER “AC-DC”
INDEX 01 00:00:00
TRACK 02 AUDIO
TITLE “Dog Eat Dog”
PERFORMER “AC-DC”
INDEX 00 05:19:55
INDEX 01 05:22:15
TRACK 03 AUDIO
TITLE “Let There Be Rock”
PERFORMER “AC-DC”
INDEX 01 08:55:07
TRACK 04 AUDIO
TITLE “Bad Boy Boogie”
PERFORMER “AC-DC”
INDEX 00 15:00:60
INDEX 01 15:04:37
TRACK 05 AUDIO
TITLE “Overdose”
PERFORMER “AC-DC”
INDEX 00 19:31:25
INDEX 01 19:33:37
TRACK 06 AUDIO
TITLE “Crabsody In Blue”
PERFORMER “AC-DC”
INDEX 01 25:41:25
TRACK 07 AUDIO
TITLE “Hell Ain’t A Bad Place To Be”
PERFORMER “AC-DC”
INDEX 01 30:25:15
TRACK 08 AUDIO
TITLE “Whole Lotta Rosie”
PERFORMER “AC-DC”
INDEX 01 34:44:57


0

Publication author

offline 7 days

Chaos

3
Comments: 4Publics: 3565Registration: 02-02-2019
Spread the Download

Leave a Reply

Your email address will not be published. Required fields are marked *

Enter the text from the image below
 

This site uses Akismet to reduce spam. Learn how your comment data is processed.