AC/DC – If You Want Blood You’ve Got It




No Cover available

Artist: AC/DC
Year: 1978/1989
Genre: Rock
Notes: Discogs
Add. Notes:
Watch Songs on: YouTube
Cover incl.: Yes
Encoder: FLAC
Bitrate: ~1000 kBit/s (44.1 kHz/16 Bit/s)
Log & Cue incl.: Yes/Yes
Size: 405,7 MB
Password: “slam” (without ” “)


All Downloads/Hosters are compatible

Download 1
KatFile.com
Turbobit.net
FileFactory.com
Rapidgator.net
Download 2
KatFile.com
Turbobit.net
FileFactory.com
Rapidgator.net

Tracklist:

1 Riff Raff 5:10
2 Hell Ain't A Bad Place To Be 4:02
3 Bad Boy Boogie 7:35
4 The Jack 5:43
5 Problem Child 4:42
6 Whole Lotta Rosie 3:50
7 Rock 'n' Roll Damnation 3:30
8 High Voltage 6:00
9 Let There Be Rock 8:15
10 Rocker 3:00

EAC-Log, CUE-Sheed & NFO:

Click to open spoiler
Exact Audio Copy V0.99 prebeta 4 from 23. January 2008

EAC Auslese-Logdatei vom 25. Juni 2009, 2:26

AC/DC / If You Want Blood You’ve Got It

Benutztes Laufwerk : HL-DT-STDVD-ROM GDR-H30N Adapter: 0 ID: 1

Lesemodus : Sicher
Benutze Accurate Stream : Ja
Audio Puffer abgeschaltet : Ja
Benutze C2 Fehlerinformationen : Nein

Leseoffset Korrektur : 6
Überlesen in das Lead-In und Lead-Out : Nein
Fülle fehlende Offsetsample mit Stille auf : Ja
Lösche führende und nachfolgende stille Blöcke : Nein
Null Samples gehen in CRC Berechnungen ein : Ja
Benutzte Schnittstelle : Installierte externe ASPI Schnittstelle

Benutztes Ausgabeformat : Interne WAV Routinen
Sampleformat : 44.100 Hz; 16 Bit; Stereo

TOC der ausgelesenen CD

Track | Start | Länge | Startsektor | Endsektor
——————————————————-
1 | 0:00.00 | 5:59.07 | 0 | 26931
2 | 5:59.07 | 4:10.33 | 26932 | 45714
3 | 10:09.40 | 7:26.62 | 45715 | 79226
4 | 17:36.27 | 5:49.65 | 79227 | 105466
5 | 23:26.17 | 4:37.15 | 105467 | 126256
6 | 28:03.32 | 4:07.68 | 126257 | 144849
7 | 32:11.25 | 3:39.65 | 144850 | 161339
8 | 35:51.15 | 5:04.47 | 161340 | 184186
9 | 40:55.62 | 8:32.38 | 184187 | 222624
10 | 49:28.25 | 3:12.12 | 222625 | 237036

Bereichsstatus und Fehler

Gewählter Bereich

Dateiname K:\AC-DC – Unremastered Albums\If You Want Blood – You’ve Got It\AC DC – If You Want Blood You’ve Got It.wav

Spitzenpegel 89.0 %
Bereichsqualität 100.0 %
Kopie CRC 98862383
Kopie OK

Keine Fehler aufgetreten

AccurateRip Übersicht

Track 1 akkurat gelesen (Zuversicht 54) [A6A05B67]
Track 2 akkurat gelesen (Zuversicht 54) [F996CDB9]
Track 3 akkurat gelesen (Zuversicht 53) [2E85E64D]
Track 4 akkurat gelesen (Zuversicht 53) [26798FE0]
Track 5 akkurat gelesen (Zuversicht 54) [CE7C5987]
Track 6 akkurat gelesen (Zuversicht 54) [455DF776]
Track 7 akkurat gelesen (Zuversicht 53) [A5CA9361]
Track 8 akkurat gelesen (Zuversicht 53) [175CA4D7]
Track 9 akkurat gelesen (Zuversicht 52) [B6EF6CB8]
Track 10 akkurat gelesen (Zuversicht 51) [44A630C5]

Alle Tracks wurden akkurat gelesen

Ende des Statusreports

REM GENRE “Hard Rock”
REM DATE 1978
REM DISCID 820C580A
REM COMMENT “ExactAudioCopy v0.99pb4”
PERFORMER “AC/DC”
TITLE “If You Want Blood You’ve Got It”
FILE “AC DC – If You Want Blood You’ve Got It.flac” WAVE
TRACK 01 AUDIO
TITLE “Riff Raff”
PERFORMER “AC/DC”
INDEX 01 00:00:00
TRACK 02 AUDIO
TITLE “Hell Ain’t A Bad Place To Be”
PERFORMER “AC/DC”
INDEX 01 05:59:07
TRACK 03 AUDIO
TITLE “Bad Boy Boogie”
PERFORMER “AC/DC”
INDEX 01 10:09:40
TRACK 04 AUDIO
TITLE “The Jack”
PERFORMER “AC/DC”
INDEX 01 17:36:27
TRACK 05 AUDIO
TITLE “Problem Child”
PERFORMER “AC/DC”
INDEX 01 23:26:17
TRACK 06 AUDIO
TITLE “Whole Lotta Rosie”
PERFORMER “AC/DC”
INDEX 01 28:03:32
TRACK 07 AUDIO
TITLE “Rock ‘n’ Roll Damnation”
PERFORMER “AC/DC”
INDEX 01 32:11:25
TRACK 08 AUDIO
TITLE “High Voltage”
PERFORMER “AC/DC”
INDEX 01 35:51:15
TRACK 09 AUDIO
TITLE “Let There Be Rock”
PERFORMER “AC/DC”
INDEX 01 40:55:62
TRACK 10 AUDIO
TITLE “Rocker”
PERFORMER “AC/DC”
INDEX 01 49:28:25


Leave a Reply

Your email address will not be published. Required fields are marked *

Enter the text from the image below
 

This site uses Akismet to reduce spam. Learn how your comment data is processed.