AC/DC – If You Want Blood, You’ve Got It




No Cover available


Artist: AC/DC
Year: 1989
Genre: Rock
Notes: Discogs
Add. Notes:
Watch Songs on: YouTube
Cover incl.: Yes
Encoder: FLAC
Bitrate: ~1000 kBit/s (44.1 kHz/16 Bit/s)
Log & Cue incl.: Yes/Yes
Size: 373 MB
Password: “slam” (without ” “)


All Downloads/Hosters are compatible

Download 1
KatFile.com
Turbobit.net
Rapidgator.net
FileFactory.com
Download 2
KatFile.com
Turbobit.net
Rapidgator.net
FileFactory.com

Tracklist:

1 Riff Raff 6:02
2 Hell Ain't A Bad Place To Be 4:12
3 Bad Boy Boogie 7:31
4 The Jack 5:50
5 Problem Child 4:52
6 Whole Lotta Rosie 4:06
7 Rock N Roll Damnation 3:41
8 High Voltage 5:06
9 Let There Be Rock 8:36
10 Rocker 3:11

EAC-Log, CUE-Sheed & NFO:

Click to open spoiler
Exact Audio Copy V1.0 beta 3 from 29. August 2011

EAC extraction logfile from 23. January 2015, 14:43

AC-DC / If You Want Blood You’ve Got It (Albert 465255 2)

Used drive : PIONEER DVD-RW DVR-215 Adapter: 0 ID: 0

Read mode : Secure
Utilize accurate stream : Yes
Defeat audio cache : Yes
Make use of C2 pointers : No

Read offset correction : 48
Overread into Lead-In and Lead-Out : No
Fill up missing offset samples with silence : Yes
Delete leading and trailing silent blocks : No
Null samples used in CRC calculations : Yes
Used interface : Native Win32 interface for Win NT & 2000

Used output format : User Defined Encoder
Selected bitrate : 1024 kBit/s
Quality : High
Add ID3 tag : No
Command line compressor : C:\Program Files (x86)\Exact Audio Copy\Flac\flac.exe
Additional command line options : -V -8 -T “Date=%year%” -T “Genre=%genre%” %source%

TOC of the extracted CD

Track | Start | Length | Start sector | End sector
———————————————————
1 | 0:00.00 | 6:02.15 | 0 | 27164
2 | 6:02.15 | 4:11.47 | 27165 | 46036
3 | 10:13.62 | 7:31.08 | 46037 | 79869
4 | 17:44.70 | 5:49.47 | 79870 | 106091
5 | 23:34.42 | 4:51.65 | 106092 | 127981
6 | 28:26.32 | 4:05.53 | 127982 | 146409
7 | 32:32.10 | 3:41.37 | 146410 | 163021
8 | 36:13.47 | 5:06.05 | 163022 | 185976
9 | 41:19.52 | 8:35.48 | 185977 | 224649
10 | 49:55.25 | 3:10.50 | 224650 | 238949

Range status and errors

Selected range

Filename F:\bki71\AC-DC\AC-DC – If You Want Blood You’ve Got It (Albert 465255 2).wav

Peak level 100.0 %
Extraction speed 7.5 X
Range quality 100.0 %
Test CRC 495C2379
Copy CRC 495C2379
Copy OK

No errors occurred

AccurateRip summary

Track 1 accurately ripped (confidence 2) [4B810F73] (AR v1)
Track 2 accurately ripped (confidence 2) [7AF8E66D] (AR v1)
Track 3 accurately ripped (confidence 2) [3C3379D1] (AR v1)
Track 4 accurately ripped (confidence 2) [7A55D148] (AR v1)
Track 5 accurately ripped (confidence 2) [413F647D] (AR v1)
Track 6 accurately ripped (confidence 2) [9730081F] (AR v1)
Track 7 accurately ripped (confidence 2) [F85EADA4] (AR v1)
Track 8 accurately ripped (confidence 2) [CF21B54A] (AR v1)
Track 9 accurately ripped (confidence 2) [D637C0BA] (AR v1)
Track 10 accurately ripped (confidence 2) [B04773F6] (AR v1)

All tracks accurately ripped

End of status report

==== Log checksum 5380F237FC2B7239EB9B48AFF90F0A1C1BC6C8A4947F1F351D934EF2DE226BEC ====

REM GENRE “Hard Rock”
REM DATE 1978
REM DISCID 900C720A
REM COMMENT “ExactAudioCopy v1.0b3”
PERFORMER “AC-DC”
TITLE “If You Want Blood You’ve Got It (Albert 465255 2)”
FILE “AC-DC – If You Want Blood You’ve Got It (Albert 465255 2).flac” WAVE
TRACK 01 AUDIO
TITLE “Riff Raff”
PERFORMER “AC-DC”
INDEX 01 00:00:00
TRACK 02 AUDIO
TITLE “Hell Ain’t A Bad Place To Be”
PERFORMER “AC-DC”
INDEX 00 05:58:67
INDEX 01 06:02:15
TRACK 03 AUDIO
TITLE “Bad Boy Boogie”
PERFORMER “AC-DC”
INDEX 00 10:05:60
INDEX 01 10:13:62
TRACK 04 AUDIO
TITLE “The Jack”
PERFORMER “AC-DC”
INDEX 00 17:35:72
INDEX 01 17:44:70
TRACK 05 AUDIO
TITLE “Problem Child”
PERFORMER “AC-DC”
INDEX 00 23:32:37
INDEX 01 23:34:42
TRACK 06 AUDIO
TITLE “Whole Lotta Rosie”
PERFORMER “AC-DC”
INDEX 00 28:07:12
INDEX 01 28:26:32
TRACK 07 AUDIO
TITLE “Rock ‘N’ Roll Damnation”
PERFORMER “AC-DC”
INDEX 00 32:29:72
INDEX 01 32:32:10
TRACK 08 AUDIO
TITLE “High Voltage”
PERFORMER “AC-DC”
INDEX 00 36:11:72
INDEX 01 36:13:47
TRACK 09 AUDIO
TITLE “Let There Be Rock”
PERFORMER “AC-DC”
INDEX 00 41:16:27
INDEX 01 41:19:52
TRACK 10 AUDIO
TITLE “Rocker”
PERFORMER “AC-DC”
INDEX 00 49:31:30
INDEX 01 49:55:25


Leave a Reply

Your email address will not be published. Required fields are marked *

Enter the text from the image below
 

This site uses Akismet to reduce spam. Learn how your comment data is processed.