AC/DC – High Voltage




No Cover available

Artist: AC/DC
Year: 1976/1988
Genre: Rock
Notes: Discogs
Add. Notes:
Watch Songs on: YouTube
Cover incl.: Yes
Encoder: FLAC
Bitrate: ~800 kBit/s (44.1 kHz/16 Bit/s)
Log & Cue incl.: Yes/Yes
Size: 306,4 MB
Password: “slam” (without ” “)


All Downloads/Hosters are compatible

Download 1
KatFile.com
Turbobit.net
FileFactory.com
Rapidgator.net
Download 2
KatFile.com
Turbobit.net
FileFactory.com
Rapidgator.net

Tracklist:

1 It's A Long Way To The Top (If You Wanna Rock 'n' 
Roll) 5:16
2 Rock 'n' Roll Singer 5:04
3 The Jack 5:52
4 Live Wire 5:50
5 T.N.T. 3:34
6 Can I Sit Next To You Girl 4:12
7 Little Lover 5:37
8 She's Got Balls 4:51
9 High Voltage 4:03

EAC-Log, CUE-Sheed & NFO:

Click to open spoiler
Exact Audio Copy V0.99 prebeta 4 from 23. January 2008

EAC Auslese-Logdatei vom 25. Juni 2009, 2:35

AC-DC / High Voltage

Benutztes Laufwerk : HL-DT-STDVD-ROM GDR-H30N Adapter: 0 ID: 1

Lesemodus : Sicher
Benutze Accurate Stream : Ja
Audio Puffer abgeschaltet : Ja
Benutze C2 Fehlerinformationen : Nein

Leseoffset Korrektur : 6
Überlesen in das Lead-In und Lead-Out : Nein
Fülle fehlende Offsetsample mit Stille auf : Ja
Lösche führende und nachfolgende stille Blöcke : Nein
Null Samples gehen in CRC Berechnungen ein : Ja
Benutzte Schnittstelle : Installierte externe ASPI Schnittstelle

Benutztes Ausgabeformat : Interne WAV Routinen
Sampleformat : 44.100 Hz; 16 Bit; Stereo

TOC der ausgelesenen CD

Track | Start | Länge | Startsektor | Endsektor
——————————————————-
1 | 0:00.32 | 4:59.28 | 32 | 22484
2 | 4:59.60 | 5:02.52 | 22485 | 45186
3 | 10:02.37 | 5:50.33 | 45187 | 71469
4 | 15:52.70 | 5:47.35 | 71470 | 97529
5 | 21:40.30 | 3:33.42 | 97530 | 113546
6 | 25:13.72 | 4:10.50 | 113547 | 132346
7 | 29:24.47 | 5:36.43 | 132347 | 157589
8 | 35:01.15 | 4:49.70 | 157590 | 179334
9 | 39:51.10 | 4:01.22 | 179335 | 197431

Bereichsstatus und Fehler

Gewählter Bereich

Dateiname K:\AC-DC – Unremastered Albums\1976 – High Voltage\AC-DC – High Voltage.wav

Spitzenpegel 100.0 %
Bereichsqualität 100.0 %
Kopie CRC AC32347A
Kopie OK

Keine Fehler aufgetreten

AccurateRip Übersicht

Track 1 akkurat gelesen (Zuversicht 36) [3BED1141]
Track 2 akkurat gelesen (Zuversicht 36) [986E0E97]
Track 3 akkurat gelesen (Zuversicht 37) [F4E60B83]
Track 4 akkurat gelesen (Zuversicht 36) [A1319493]
Track 5 akkurat gelesen (Zuversicht 38) [78B3836D]
Track 6 akkurat gelesen (Zuversicht 37) [691AE04A]
Track 7 akkurat gelesen (Zuversicht 37) [933DD4D4]
Track 8 akkurat gelesen (Zuversicht 36) [1839BDCE]
Track 9 akkurat gelesen (Zuversicht 36) [39D64FA8]

Alle Tracks wurden akkurat gelesen

Ende des Statusreports

REM GENRE Rock
REM DATE 1976
REM DISCID 5F0A4809
REM COMMENT “ExactAudioCopy v0.99pb4”
PERFORMER “AC-DC”
TITLE “High Voltage”
FILE “AC-DC – High Voltage.flac” WAVE
TRACK 01 AUDIO
TITLE “It’s A Long Way To The Top (If You Wanna Rock ‘N’ Roll)”
PERFORMER “AC-DC”
INDEX 00 00:00:00
INDEX 01 00:00:32
TRACK 02 AUDIO
TITLE “Rock ‘N’ Roll Singer”
PERFORMER “AC-DC”
INDEX 00 04:58:17
INDEX 01 04:59:60
TRACK 03 AUDIO
TITLE “The Jack”
PERFORMER “AC-DC”
INDEX 00 10:01:25
INDEX 01 10:02:37
TRACK 04 AUDIO
TITLE “Live Wire”
PERFORMER “AC-DC”
INDEX 00 15:50:05
INDEX 01 15:52:70
TRACK 05 AUDIO
TITLE “T. N. T.”
PERFORMER “AC-DC”
INDEX 00 21:39:05
INDEX 01 21:40:30
TRACK 06 AUDIO
TITLE “Can I Sit Next To You Girl”
PERFORMER “AC-DC”
INDEX 00 25:13:15
INDEX 01 25:13:72
TRACK 07 AUDIO
TITLE “Little Lover”
PERFORMER “AC-DC”
INDEX 00 29:22:32
INDEX 01 29:24:47
TRACK 08 AUDIO
TITLE “She’s Got Balls”
PERFORMER “AC-DC”
INDEX 00 34:59:57
INDEX 01 35:01:15
TRACK 09 AUDIO
TITLE “High Voltage”
PERFORMER “AC-DC”
INDEX 00 39:50:12
INDEX 01 39:51:10


Leave a Reply

Your email address will not be published. Required fields are marked *

Enter the text from the image below
 

This site uses Akismet to reduce spam. Learn how your comment data is processed.