AC/DC – For Those About To Rock We Salute You




No Cover available

Artist: AC/DC
Year: 1981/1987
Genre: Rock
Notes: Discogs
Add. Notes:
Watch Songs on: YouTube
Cover incl.: Yes
Encoder: FLAC
Bitrate: ~900 kBit/s (44.1 kHz/16 Bit/s)
Log & Cue incl.: Yes/Yes
Size: 259 MB
Password: “slam” (without ” “)


All Downloads/Hosters are compatible

Download 1
KatFile.com
Turbobit.net
Rapidgator.net
FileFactory.com
Download 2
KatFile.com
Turbobit.net
Rapidgator.net
FileFactory.com

Tracklist:

1 For Those About To Rock (We Salute You) 5:43
2 Put The Finger On You 3:28
3 Let's Get It Up 3:54
4 Inject The Venom 3:32
5 Snowballed 3:23
6 Evil Walks 4:23
7 C.O.D. 3:19
8 Breaking The Rules 4:23
9 Night Of The Long Knives 3:25
10 Spellbound 4:29

EAC-Log, CUE-Sheed & NFO:

Click to open spoiler
Exact Audio Copy V0.99 prebeta 5 from 4. May 2009

EAC extraction logfile from 11. August 2011, 18:57

AC-DC / For Those About To Rock (We Salute You)

Used drive : PLEXTOR DVDR PX-760A Adapter: 0 ID: 0

Read mode : Secure
Utilize accurate stream : Yes
Defeat audio cache : Yes
Make use of C2 pointers : No

Read offset correction : 30
Overread into Lead-In and Lead-Out : No
Fill up missing offset samples with silence : Yes
Delete leading and trailing silent blocks : No
Null samples used in CRC calculations : Yes
Used interface : Native Win32 interface for Win NT & 2000

Used output format : User Defined Encoder
Selected bitrate : 1024 kBit/s
Quality : High
Add ID3 tag : No
Command line compressor : C:\Program Files (x86)\Exact Audio Copy\Flac\flac.exe
Additional command line options : -8 -V %s

TOC of the extracted CD

Track | Start | Length | Start sector | End sector
———————————————————
1 | 0:00.33 | 5:43.45 | 33 | 25802
2 | 5:44.03 | 3:28.17 | 25803 | 41419
3 | 9:12.20 | 3:54.00 | 41420 | 58969
4 | 13:06.20 | 3:32.03 | 58970 | 74872
5 | 16:38.23 | 3:23.60 | 74873 | 90157
6 | 20:02.08 | 4:23.45 | 90158 | 109927
7 | 24:25.53 | 3:19.67 | 109928 | 124919
8 | 27:45.45 | 4:23.48 | 124920 | 144692
9 | 32:09.18 | 3:25.62 | 144693 | 160129
10 | 35:35.05 | 4:29.45 | 160130 | 180349

Range status and errors

Selected range

Filename D:\bki71\AC-DC – For Those About To Rock (We Salute You).wav

Peak level 93.9 %
Range quality 100.0 %
Test CRC E5EB05FD
Copy CRC E5EB05FD
Copy OK

No errors occurred

AccurateRip summary

Track 1 accurately ripped (confidence 11) [88C83906]
Track 2 accurately ripped (confidence 11) [90E19C7A]
Track 3 accurately ripped (confidence 11) [1F57DB2C]
Track 4 accurately ripped (confidence 11) [BDC1DD7D]
Track 5 accurately ripped (confidence 11) [7078508E]
Track 6 accurately ripped (confidence 11) [5A247F35]
Track 7 accurately ripped (confidence 11) [4C9B67A4]
Track 8 accurately ripped (confidence 11) [D6F3DD85]
Track 9 accurately ripped (confidence 11) [5439E2B4]
Track 10 accurately ripped (confidence 11) [16D44719]

All tracks accurately ripped

End of status report

REM GENRE “Hard Rock”
REM DATE 1981
REM DISCID 7D09640A
REM COMMENT “ExactAudioCopy v0.99pb5”
PERFORMER “AC-DC”
TITLE “For Those About To Rock (We Salute You)”
FILE “AC-DC – For Those About To Rock (We Salute You).flac” WAVE
TRACK 01 AUDIO
TITLE “For Those About To Rock (We Salute You)”
PERFORMER “AC-DC”
INDEX 00 00:00:00
INDEX 01 00:00:33
TRACK 02 AUDIO
TITLE “Put The Finger On You”
PERFORMER “AC-DC”
INDEX 01 05:44:03
TRACK 03 AUDIO
TITLE “Let’s Get It Up”
PERFORMER “AC-DC”
INDEX 00 09:10:23
INDEX 01 09:12:20
TRACK 04 AUDIO
TITLE “Inject The Venom”
PERFORMER “AC-DC”
INDEX 01 13:06:20
TRACK 05 AUDIO
TITLE “Snowballed”
PERFORMER “AC-DC”
INDEX 00 16:37:55
INDEX 01 16:38:23
TRACK 06 AUDIO
TITLE “Evil Walks”
PERFORMER “AC-DC”
INDEX 01 20:02:08
TRACK 07 AUDIO
TITLE “C.O.D.”
PERFORMER “AC-DC”
INDEX 01 24:25:53
TRACK 08 AUDIO
TITLE “Breaking The Rules”
PERFORMER “AC-DC”
INDEX 01 27:45:45
TRACK 09 AUDIO
TITLE “Night Of The Long Knives”
PERFORMER “AC-DC”
INDEX 01 32:09:18
TRACK 10 AUDIO
TITLE “Spellbound”
PERFORMER “AC-DC”
INDEX 01 35:35:05


Leave a Reply

Your email address will not be published. Required fields are marked *

Enter the text from the image below
 

This site uses Akismet to reduce spam. Learn how your comment data is processed.