AC/DC – Flick Of The Switch




No Cover available

Artist: AC/DC
Year: 1983/1989
Genre: Rock
Notes: Discogs
Add. Notes:
Watch Songs on: YouTube
Cover incl.: Yes
Encoder: FLAC
Bitrate: ~900 kBit/s (44.1 kHz/16 Bit/s)
Log & Cue incl.: Yes/Yes
Size: 238,9 MB
Password: “slam” (without ” “)


All Downloads/Hosters are compatible

Download 1
KatFile.com
Turbobit.net
Rapidgator.net
FileFactory.com
Download 2
KatFile.com
Turbobit.net
Rapidgator.net
FileFactory.com

Tracklist:

1 Rising Power 3:43
2 This House Is On Fire 3:23
3 Flick Of The Switch 3:17
4 Nervous Shakedown 4:22
5 Landslide 3:56
6 Guns For Hire 3:25
7 Deep In The Hole 3:17
8 Bedlam In Belgium 3:48
9 Badlands 3:37
10 Brain Shake 4:00

EAC-Log, CUE-Sheed & NFO:

Click to open spoiler
Exact Audio Copy V1.0 beta 3 from 29. August 2011

EAC extraction logfile from 15. July 2013, 14:49

AC-DC / Flick Of The Switch

Used drive : TSSTcorpCDDVDW SH-S203B Adapter: 2 ID: 0

Read mode : Secure
Utilize accurate stream : Yes
Defeat audio cache : Yes
Make use of C2 pointers : No

Read offset correction : 6
Overread into Lead-In and Lead-Out : No
Fill up missing offset samples with silence : Yes
Delete leading and trailing silent blocks : No
Null samples used in CRC calculations : Yes
Used interface : Native Win32 interface for Win NT & 2000

Used output format : Internal WAV Routines
Sample format : 44.100 Hz; 16 Bit; Stereo

TOC of the extracted CD

Track | Start | Length | Start sector | End sector
———————————————————
1 | 0:00.00 | 3:43.40 | 0 | 16764
2 | 3:43.40 | 3:23.12 | 16765 | 32001
3 | 7:06.52 | 3:13.18 | 32002 | 46494
4 | 10:19.70 | 4:26.40 | 46495 | 66484
5 | 14:46.35 | 3:56.25 | 66485 | 84209
6 | 18:42.60 | 3:24.17 | 84210 | 99526
7 | 22:07.02 | 3:19.30 | 99527 | 114481
8 | 25:26.32 | 3:51.55 | 114482 | 131861
9 | 29:18.12 | 3:38.13 | 131862 | 148224
10 | 32:56.25 | 3:59.40 | 148225 | 166189

Range status and errors

Selected range

Filename C:\Incoming\UncleSandy\AC-DC – Flick Of The Switch.wav

Peak level 98.4 %
Extraction speed 2.6 X
Range quality 100.0 %
Test CRC D35D9273
Copy CRC D35D9273
Copy OK

No errors occurred

AccurateRip summary

Track 1 accurately ripped (confidence 4) [62FA2249] (AR v2)
Track 2 accurately ripped (confidence 4) [F26F16F6] (AR v2)
Track 3 accurately ripped (confidence 4) [E39BBB5E] (AR v2)
Track 4 accurately ripped (confidence 5) [82B815CF] (AR v2)
Track 5 accurately ripped (confidence 5) [214B27D9] (AR v2)
Track 6 accurately ripped (confidence 5) [AA938C8C] (AR v2)
Track 7 accurately ripped (confidence 5) [641AF2E6] (AR v2)
Track 8 accurately ripped (confidence 4) [EA3F1BB2] (AR v2)
Track 9 accurately ripped (confidence 4) [61DCAADA] (AR v2)
Track 10 accurately ripped (confidence 4) [255F0AB1] (AR v2)

All tracks accurately ripped

End of status report

==== Log checksum 474A2504B458D7D88DE3D23BED5F45D6A3327B3B6751A0295BD49B0D524FEADD ====

REM GENRE “Hard Rock”
REM DATE 1983
REM DISCID 8808A70A
REM COMMENT “ExactAudioCopy v1.0b3”
CATALOG 7801000200000
PERFORMER “AC-DC”
TITLE “Flick Of The Switch”
FILE “AC-DC – Flick Of The Switch.flac” WAVE
TRACK 01 AUDIO
TITLE “Rising Power”
PERFORMER “AC-DC”
INDEX 01 00:00:00
TRACK 02 AUDIO
TITLE “This House Is On Fire”
PERFORMER “AC-DC”
INDEX 00 03:43:15
INDEX 01 03:43:40
TRACK 03 AUDIO
TITLE “Flick Of The Switch”
PERFORMER “AC-DC”
INDEX 00 07:06:22
INDEX 01 07:06:52
TRACK 04 AUDIO
TITLE “Nervous Shakedown”
PERFORMER “AC-DC”
INDEX 00 10:18:62
INDEX 01 10:19:70
TRACK 05 AUDIO
TITLE “Landslide”
PERFORMER “AC-DC”
INDEX 00 14:45:72
INDEX 01 14:46:35
TRACK 06 AUDIO
TITLE “Guns For Hire”
PERFORMER “AC-DC”
INDEX 00 18:42:52
INDEX 01 18:42:60
TRACK 07 AUDIO
TITLE “Deep In The Hole”
PERFORMER “AC-DC”
INDEX 00 22:06:42
INDEX 01 22:07:02
TRACK 08 AUDIO
TITLE “Bedlam In Belgium”
PERFORMER “AC-DC”
INDEX 00 25:25:72
INDEX 01 25:26:32
TRACK 09 AUDIO
TITLE “Badlands”
PERFORMER “AC-DC”
INDEX 00 29:18:10
INDEX 01 29:18:12
TRACK 10 AUDIO
TITLE “Brain Shake”
PERFORMER “AC-DC”
INDEX 00 32:55:35
INDEX 01 32:56:25


Leave a Reply

Your email address will not be published. Required fields are marked *

Enter the text from the image below
 

This site uses Akismet to reduce spam. Learn how your comment data is processed.