AC/DC – Dirty Deeds Done Dirt Cheap




No Cover available

Artist: AC/DC
Year: 1976/1989
Genre: Metal
Notes: Discogs
Add. Notes:
Watch Songs on: YouTube
Cover incl.: Yes
Encoder: FLAC
Bitrate: ~800 kBit/s (44.1 kHz/16 Bit/s)
Log & Cue incl.: Yes/Yes
Size: 255,4 MB
Password: “slam” (without ” “)


All Downloads/Hosters are compatible

Download 1
KatFile.com
Turbobit.net
Rapidgator.net
FileFactory.com
Download 2
KatFile.com
Turbobit.net
Rapidgator.net
FileFactory.com

Tracklist:

1  Dirty Deeds Done Dirt Cheap  4:14
2  Ain't No Fun (Waiting Round To Be A Millionaire)  7:31
3  There's Gonna Be Some Rockin'  3:18
4  Problem Child  5:49
5  Squealer  5:18
6  Big Balls  2:39
7  R.I.P. (Rock In Peace)  3:35
8  Ride On  5:51
9  Jailbreak  4:42

EAC-Log, CUE-Sheed & NFO:

Click to open spoiler
Exact Audio Copy V1.0 beta 3 from 29. August 2011

EAC extraction logfile from 23. January 2015, 11:19

AC-DC / Dirty Deeds Done Dirt Cheap (Albert 465258 2)

Used drive : PLEXTOR DVDR PX-760A Adapter: 1 ID: 0

Read mode : Secure
Utilize accurate stream : Yes
Defeat audio cache : Yes
Make use of C2 pointers : No

Read offset correction : 30
Overread into Lead-In and Lead-Out : No
Fill up missing offset samples with silence : Yes
Delete leading and trailing silent blocks : No
Null samples used in CRC calculations : Yes
Used interface : Native Win32 interface for Win NT & 2000

Used output format : User Defined Encoder
Selected bitrate : 1024 kBit/s
Quality : High
Add ID3 tag : No
Command line compressor : C:\Program Files (x86)\Exact Audio Copy\Flac\flac.exe
Additional command line options : -V -8 -T “Date=%year%” -T “Genre=%genre%” %source%

TOC of the extracted CD

Track | Start | Length | Start sector | End sector
———————————————————
1 | 0:00.00 | 4:13.70 | 0 | 19044
2 | 4:13.70 | 7:30.50 | 19045 | 52844
3 | 11:44.45 | 3:18.10 | 52845 | 67704
4 | 15:02.55 | 5:49.37 | 67705 | 93916
5 | 20:52.17 | 5:18.08 | 93917 | 117774
6 | 26:10.25 | 2:38.62 | 117775 | 129686
7 | 28:49.12 | 3:35.05 | 129687 | 145816
8 | 32:24.17 | 5:51.15 | 145817 | 172156
9 | 38:15.32 | 4:41.60 | 172157 | 193291

Range status and errors

Selected range

Filename F:\bki71\AC-DC\AC-DC – Dirty Deeds Done Dirt Cheap (Albert 465258 2).wav

Peak level 100.0 %
Extraction speed 2.5 X
Range quality 100.0 %
Test CRC 00BBA39A
Copy CRC 00BBA39A
Copy OK

No errors occurred

AccurateRip summary

Track 1 accurately ripped (confidence 20) [10BBEA7F] (AR v2)
Track 2 accurately ripped (confidence 20) [E1D13E12] (AR v2)
Track 3 accurately ripped (confidence 20) [A3921751] (AR v2)
Track 4 accurately ripped (confidence 19) [54FF58CA] (AR v2)
Track 5 accurately ripped (confidence 20) [4C70C472] (AR v2)
Track 6 accurately ripped (confidence 20) [EB6696E5] (AR v2)
Track 7 accurately ripped (confidence 20) [554C8674] (AR v2)
Track 8 accurately ripped (confidence 19) [26AEBB08] (AR v2)
Track 9 accurately ripped (confidence 19) [D690A115] (AR v2)

All tracks accurately ripped

End of status report

==== Log checksum B612E85F848F4AD64E974FE1B45E074B0A0CADAE0F541A44DC87B17DD6396C1A ====

REM GENRE “Hard Rock”
REM DATE 1976
REM DISCID 770A1109
REM COMMENT “ExactAudioCopy v1.0b3”
PERFORMER “AC-DC”
TITLE “Dirty Deeds Done Dirt Cheap (Albert 465258 2)”
FILE “AC-DC – Dirty Deeds Done Dirt Cheap (Albert 465258 2).flac” WAVE
TRACK 01 AUDIO
TITLE “Dirty Deeds Done Dirt Cheap”
PERFORMER “AC-DC”
INDEX 01 00:00:00
TRACK 02 AUDIO
TITLE “Ain’t No Fun (Waiting ‘Round To Be A Millionaire)”
PERFORMER “AC-DC”
INDEX 01 04:13:70
TRACK 03 AUDIO
TITLE “There’s Gonna Be Some Rockin'”
PERFORMER “AC-DC”
INDEX 01 11:44:45
TRACK 04 AUDIO
TITLE “Problem Child”
PERFORMER “AC-DC”
INDEX 01 15:02:55
TRACK 05 AUDIO
TITLE “Squealer”
PERFORMER “AC-DC”
INDEX 00 20:49:32
INDEX 01 20:52:17
TRACK 06 AUDIO
TITLE “Big Balls”
PERFORMER “AC-DC”
INDEX 00 26:08:22
INDEX 01 26:10:25
TRACK 07 AUDIO
TITLE “R.I.P. (Rock In Peace)”
PERFORMER “AC-DC”
INDEX 01 28:49:12
TRACK 08 AUDIO
TITLE “Ride On”
PERFORMER “AC-DC”
INDEX 01 32:24:17
TRACK 09 AUDIO
TITLE “Jailbreak”
PERFORMER “AC-DC”
INDEX 01 38:15:32


Leave a Reply

Your email address will not be published. Required fields are marked *

Enter the text from the image below
 

This site uses Akismet to reduce spam. Learn how your comment data is processed.