AC/DC – Dirty Deeds Done Dirt Cheap (Reissue)




No Cover available

Artist: AC/DC
Year: 1976/1987
Genre: Rock
Notes: Discogs
Add. Notes: Reissue
Watch Songs on: YouTube
Cover incl.: Yes
Encoder: FLAC
Bitrate: ~800 kBit/s (44.1 kHz/16 Bit/s)
Log & Cue incl.: Yes/Yes
Size: 295,9 MB
Password: “slam” (without ” “)


All Downloads/Hosters are compatible

Download 1
KatFile.com
Turbobit.net
FileFactory.com
Rapidgator.net
Download 2
KatFile.com
Turbobit.net
FileFactory.com
Rapidgator.net

Tracklist:

1 Dirty Deeds Done Dirt Cheap 3:46
2 Love At First Feel 3:05
3 Big Balls 2:39
4 Rocker 2:46
5 Problem Child 5:46
6 There's Gonna Be Some Rockin' 3:14
7 Ain't No Fun (Waiting Round To Be A Millionaire) 6:57
8 Ride On 5:47
9 Squealer 5:12

EAC-Log, CUE-Sheed & NFO:

Click to open spoiler
Exact Audio Copy V0.99 prebeta 4 from 23. January 2008

EAC Auslese-Logdatei vom 25. Juni 2009, 10:46

AC-DC / Dirty Deeds Done Dirt Cheap

Benutztes Laufwerk : HL-DT-STDVD-ROM GDR-H30N Adapter: 0 ID: 1

Lesemodus : Sicher
Benutze Accurate Stream : Ja
Audio Puffer abgeschaltet : Ja
Benutze C2 Fehlerinformationen : Nein

Leseoffset Korrektur : 6
Überlesen in das Lead-In und Lead-Out : Nein
Fülle fehlende Offsetsample mit Stille auf : Ja
Lösche führende und nachfolgende stille Blöcke : Nein
Null Samples gehen in CRC Berechnungen ein : Ja
Benutzte Schnittstelle : Installierte externe ASPI Schnittstelle

Benutztes Ausgabeformat : Interne WAV Routinen
Sampleformat : 44.100 Hz; 16 Bit; Stereo

TOC der ausgelesenen CD

Track | Start | Länge | Startsektor | Endsektor
——————————————————-
1 | 0:00.33 | 3:50.70 | 33 | 17352
2 | 3:51.28 | 3:10.12 | 17353 | 31614
3 | 7:01.40 | 2:37.60 | 31615 | 43449
4 | 9:39.25 | 2:51.00 | 43450 | 56274
5 | 12:30.25 | 5:46.28 | 56275 | 82252
6 | 18:16.53 | 3:16.02 | 82253 | 96954
7 | 21:32.55 | 6:54.08 | 96955 | 128012
8 | 28:26.63 | 5:51.67 | 128013 | 154404
9 | 34:18.55 | 5:10.28 | 154405 | 177682

Bereichsstatus und Fehler

Gewählter Bereich

Dateiname K:\AC-DC – Unremastered Albums\1977 – Dirty Deeds Done Dirt Cheap\AC-DC – Dirty Deeds Done Dirt Cheap.wav

Spitzenpegel 100.0 %
Bereichsqualität 100.0 %
Kopie CRC 03A331FA
Kopie OK

Keine Fehler aufgetreten

AccurateRip Übersicht

Track 1 akkurat gelesen (Zuversicht 55) [0C058F08]
Track 2 akkurat gelesen (Zuversicht 55) [2A3AEF03]
Track 3 akkurat gelesen (Zuversicht 54) [DAA37E73]
Track 4 akkurat gelesen (Zuversicht 54) [93B8BE47]
Track 5 akkurat gelesen (Zuversicht 53) [AFF995EF]
Track 6 akkurat gelesen (Zuversicht 53) [88BDD6A2]
Track 7 akkurat gelesen (Zuversicht 54) [A568E49A]
Track 8 akkurat gelesen (Zuversicht 53) [777D0066]
Track 9 akkurat gelesen (Zuversicht 51) [7203E20B]

Alle Tracks wurden akkurat gelesen

Ende des Statusreports

REM GENRE Rock
REM DATE 1976
REM DISCID 69094109
REM COMMENT “ExactAudioCopy v0.99pb4”
PERFORMER “AC-DC”
TITLE “Dirty Deeds Done Dirt Cheap”
FILE “AC-DC – Dirty Deeds Done Dirt Cheap.flac” WAVE
TRACK 01 AUDIO
TITLE “Dirty Deeds Done Dirt Cheap”
PERFORMER “AC-DC”
INDEX 00 00:00:00
INDEX 01 00:00:33
TRACK 02 AUDIO
TITLE “Love at First Feel”
PERFORMER “AC-DC”
INDEX 00 03:49:38
INDEX 01 03:51:28
TRACK 03 AUDIO
TITLE “Big Balls”
PERFORMER “AC-DC”
INDEX 00 06:57:70
INDEX 01 07:01:40
TRACK 04 AUDIO
TITLE “Rocker”
PERFORMER “AC-DC”
INDEX 01 09:39:25
TRACK 05 AUDIO
TITLE “Problem Child”
PERFORMER “AC-DC”
INDEX 00 12:26:35
INDEX 01 12:30:25
TRACK 06 AUDIO
TITLE “There’s Gonna be Some Rockin'”
PERFORMER “AC-DC”
INDEX 00 18:13:60
INDEX 01 18:16:53
TRACK 07 AUDIO
TITLE “Ain’t No Fun (Waiting Round to be a Millionaire)”
PERFORMER “AC-DC”
INDEX 00 21:31:43
INDEX 01 21:32:55
TRACK 08 AUDIO
TITLE “Ride On”
PERFORMER “AC-DC”
INDEX 00 28:20:53
INDEX 01 28:26:63
TRACK 09 AUDIO
TITLE “Squealer”
PERFORMER “AC-DC”
INDEX 00 34:14:35
INDEX 01 34:18:55


Leave a Reply

Your email address will not be published. Required fields are marked *

Enter the text from the image below
 

This site uses Akismet to reduce spam. Learn how your comment data is processed.