AC/DC – Back in Black




No Cover available

Artist: AC/DC
Year: 1980/1987
Genre: Rock
Notes: Discogs
Add. Notes:
Watch Songs on: YouTube
Cover incl.: Yes
Encoder: FLAC
Bitrate: ~900 kBit/s (44.1 kHz/16 Bit/s)
Log & Cue incl.: Yes/Yes
Size: 318,7 MB
Password: “slam” (without ” “)


All Downloads/Hosters are compatible

Download 1
KatFile.com
Turbobit.net
Rapidgator.net
FileFactory.com
Download 2
KatFile.com
Turbobit.net
Rapidgator.net
FileFactory.com

Tracklist:

1 Hells Bells 5:09
2 Shoot To Thrill 5:14
3 What Do You Do For Money Honey 3:33
4 Given The Dog A Bone 3:30
5 Let Me Put My Love Into You 4:12
6 Back In Black 4:13
7 You Shook Me All Night Long 3:28
8 Have A Drink On Me 3:57
9 Shake A Leg 4:03
10 Rock And Roll Ain't Noise Pollution 4:12

EAC-Log, CUE-Sheed & NFO:

Click to open spoiler
Exact Audio Copy V0.99 prebeta 4 from 23. January 2008

EAC Auslese-Logdatei vom 25. Juni 2009, 10:27

AC-DC / Back in Black

Benutztes Laufwerk : HL-DT-STDVD-ROM GDR-H30N Adapter: 0 ID: 1

Lesemodus : Sicher
Benutze Accurate Stream : Ja
Audio Puffer abgeschaltet : Ja
Benutze C2 Fehlerinformationen : Nein

Leseoffset Korrektur : 6
Überlesen in das Lead-In und Lead-Out : Nein
Fülle fehlende Offsetsample mit Stille auf : Ja
Lösche führende und nachfolgende stille Blöcke : Nein
Null Samples gehen in CRC Berechnungen ein : Ja
Benutzte Schnittstelle : Installierte externe ASPI Schnittstelle

Benutztes Ausgabeformat : Interne WAV Routinen
Sampleformat : 44.100 Hz; 16 Bit; Stereo

TOC der ausgelesenen CD

Track | Start | Länge | Startsektor | Endsektor
——————————————————-
1 | 0:00.33 | 5:12.20 | 33 | 23452
2 | 5:12.53 | 5:17.67 | 23453 | 47294
3 | 10:30.45 | 3:35.40 | 47295 | 63459
4 | 14:06.10 | 3:32.20 | 63460 | 79379
5 | 17:38.30 | 4:14.15 | 79380 | 98444
6 | 21:52.45 | 4:15.45 | 98445 | 117614
7 | 26:08.15 | 3:30.23 | 117615 | 133387
8 | 29:38.38 | 3:59.05 | 133388 | 151317
9 | 33:37.43 | 4:05.62 | 151318 | 169754
10 | 37:43.30 | 4:14.40 | 169755 | 188844

Bereichsstatus und Fehler

Gewählter Bereich

Dateiname K:\AC-DC – Unremastered Albums\1980 – Back In Black\AC-DC – Back in Black.wav

Spitzenpegel 89.1 %
Bereichsqualität 100.0 %
Kopie CRC 1CC16D29
Kopie OK

Keine Fehler aufgetreten

AccurateRip Übersicht

Track 1 akkurat gelesen (Zuversicht 43) [A959EA00]
Track 2 akkurat gelesen (Zuversicht 43) [FE203191]
Track 3 akkurat gelesen (Zuversicht 43) [762A6954]
Track 4 akkurat gelesen (Zuversicht 44) [AB84E2F7]
Track 5 akkurat gelesen (Zuversicht 44) [206DE774]
Track 6 akkurat gelesen (Zuversicht 44) [C6D35391]
Track 7 akkurat gelesen (Zuversicht 44) [B6177360]
Track 8 akkurat gelesen (Zuversicht 44) [4B961846]
Track 9 akkurat gelesen (Zuversicht 44) [D895729C]
Track 10 akkurat gelesen (Zuversicht 43) [5E3A21D4]

Alle Tracks wurden akkurat gelesen

Ende des Statusreports

REM GENRE Rock
REM DATE 1980
REM DISCID 7109D50A
REM COMMENT “ExactAudioCopy v0.99pb4”
PERFORMER “AC-DC”
TITLE “Back in Black”
FILE “AC-DC – Back in Black.flac” WAVE
TRACK 01 AUDIO
TITLE “Hells Bells”
PERFORMER “AC-DC”
INDEX 00 00:00:00
INDEX 01 00:00:33
TRACK 02 AUDIO
TITLE “Shoot To Thrill”
PERFORMER “AC-DC”
INDEX 01 05:12:53
TRACK 03 AUDIO
TITLE “What Do You Do For Money Honey”
PERFORMER “AC-DC”
INDEX 01 10:30:45
TRACK 04 AUDIO
TITLE “Givin’ The Dog A Bone”
PERFORMER “AC-DC”
INDEX 01 14:06:10
TRACK 05 AUDIO
TITLE “Let Me Put My Love Into You”
PERFORMER “AC-DC”
INDEX 01 17:38:30
TRACK 06 AUDIO
TITLE “Back In Black”
PERFORMER “AC-DC”
INDEX 01 21:52:45
TRACK 07 AUDIO
TITLE “You Shook Me All Night Long”
PERFORMER “AC-DC”
INDEX 00 26:07:40
INDEX 01 26:08:15
TRACK 08 AUDIO
TITLE “Have A Drink On Me”
PERFORMER “AC-DC”
INDEX 01 29:38:38
TRACK 09 AUDIO
TITLE “Shake A Leg”
PERFORMER “AC-DC”
INDEX 01 33:37:43
TRACK 10 AUDIO
TITLE “Rock And Roll Ain’t Noise Pollution”
PERFORMER “AC-DC”
INDEX 00 37:43:20
INDEX 01 37:43:30


Leave a Reply

Your email address will not be published. Required fields are marked *

This site uses Akismet to reduce spam. Learn how your comment data is processed.