Abstürzende Brieftauben – Entschuldigen Sie Bitte




Artist: Abstürzende Brieftauben
Year: 1988
Genre: Punk
Notes: Discogs
Add. Notes:
Cover incl.: Yes
Encoder: FLAC
Bitrate: ~1000 kBit/s (44.1 kHz/16 Bit/s)
Log & Cue incl.: Yes
Size: 190,33 MB
Password: “slam” (without ” “)


All Downloads/Hosters are compatible

Download 1
Turbobit.net
Rapidgator.net
KatFile.com
UploadRar.com
Download 2
Turbobit.net
Rapidgator.net
KatFile.com
UploadRar.com
Download 3
Turbobit.net
Rapidgator.net
KatFile.com
UploadRar.com

Tracklist:

Commercial-Side
1. Das Grauen Ist In Dieser Stadt. 4:37
Suicide
2. Immer Das Selbe. 2:12
3. Zu Spät. 2:20
4. Whip-Pib. 2:12
5. Faxen '88. 2:38
6. Kleine Mädchen. 2:18
7. Zwei Pullen Korn. 2:02
8. Love Song. 2:50

EAC-Log, CUE-Sheed & NFO:

Click to open spoiler
REM DISCID 6D050308
REM COMMENT “ExactAudioCopy v0.99pb5”
PERFORMER “”
TITLE “”
FILE “Absturzende Brieftauben – Entschuldigen Sie Bitte.flac” WAVE
TRACK 01 AUDIO
TITLE “Track01”
PERFORMER “”
INDEX 01 00:00:00
TRACK 02 AUDIO
TITLE “Track02”
PERFORMER “”
INDEX 00 04:36:03
INDEX 01 04:37:28
TRACK 03 AUDIO
TITLE “Track03”
PERFORMER “”
INDEX 00 06:49:41
INDEX 01 06:50:66
TRACK 04 AUDIO
TITLE “Track04”
PERFORMER “”
INDEX 00 09:09:45
INDEX 01 09:10:70
TRACK 05 AUDIO
TITLE “Track05”
PERFORMER “”
INDEX 00 11:24:20
INDEX 01 11:25:45
TRACK 06 AUDIO
TITLE “Track06”
PERFORMER “”
INDEX 00 14:06:34
INDEX 01 14:07:59
TRACK 07 AUDIO
TITLE “Track07”
PERFORMER “”
INDEX 00 16:24:44
INDEX 01 16:25:69
TRACK 08 AUDIO
TITLE “Track08”
PERFORMER “”
INDEX 00 18:28:37
INDEX 01 18:29:62

Leave a Reply

Your email address will not be published. Required fields are marked *

This site uses Akismet to reduce spam. Learn how your comment data is processed.