The Rolling Stones – Desert Island Survival Kit (Promo)




Artist: The Rolling Stones
Year: 1994
Genre: Rock
Notes: Discogs
Add. Notes: Promo
Cover incl.: Yes
Encoder: FLAC
Bitrate: ~800 kBit/s (44.1 kHz/16 Bit/s)
Log & Cue incl.: Yes
Size: 336,39 MB
Password: “slam” (without ” “)


All Downloads/Hosters are compatible

Download 1
KatFile.com
Turbobit.net
FileFactory.com
Rapidgator.net
Download 2
KatFile.com
Turbobit.net
FileFactory.com
Rapidgator.net

Tracklist:

1 It's All Over Now 
2 2120 South Michigan Avenue 
3 The Spider And The Fly 
4 Get Off Of My Cloud 
5 Under My Thumb 
6 Think 
7 Ruby Tuesday 
8 Miss Amanda Jones 
9 Dandelion 
10 Jumping Jack Flash 
11 Salt Of The Earth 
12 You Got The Silver 
13 Monkey Man 
14 Midnight Rambler (Live) 
15 Sympathy For The Devil (Live)

EAC-Log, CUE-Sheed & NFO:

Click to open spoiler
Exact Audio Copy V1.0 beta 3 from 29. August 2011

EAC extraction logfile from 4. April 2013, 16:16

The Rolling Stones / Desert Island Survival Kit

Used drive : HL-DT-STDVD+-RW GH50N Adapter: 0 ID: 1

Read mode : Secure
Utilize accurate stream : Yes
Defeat audio cache : Yes
Make use of C2 pointers : No

Read offset correction : 667
Overread into Lead-In and Lead-Out : No
Fill up missing offset samples with silence : Yes
Delete leading and trailing silent blocks : No
Null samples used in CRC calculations : Yes
Used interface : Native Win32 interface for Win NT & 2000

Used output format : User Defined Encoder
Selected bitrate : 768 kBit/s
Quality : High
Add ID3 tag : No
Command line compressor : C:\Program Files (x86)\Exact Audio Copy\FLAC\FLAC.EXE
Additional command line options : -V -8 -T “Date=%year%” -T “Genre=%genre%” %source%

TOC of the extracted CD

Track | Start | Length | Start sector | End sector
———————————————————
1 | 0:00.00 | 3:27.15 | 0 | 15539
2 | 3:27.15 | 2:08.27 | 15540 | 25166
3 | 5:35.42 | 3:38.63 | 25167 | 41579
4 | 9:14.30 | 2:54.72 | 41580 | 54701
5 | 12:09.27 | 3:41.18 | 54702 | 71294
6 | 15:50.45 | 3:10.12 | 71295 | 85556
7 | 19:00.57 | 3:17.05 | 85557 | 100336
8 | 22:17.62 | 2:41.25 | 100337 | 112436
9 | 24:59.12 | 3:32.30 | 112437 | 128366
10 | 28:31.42 | 3:41.58 | 128367 | 144999
11 | 32:13.25 | 4:51.05 | 145000 | 166829
12 | 37:04.30 | 2:52.70 | 166830 | 179799
13 | 39:57.25 | 4:12.37 | 179800 | 198736
14 | 44:09.62 | 9:21.20 | 198737 | 240831
15 | 53:31.07 | 6:32.18 | 240832 | 270249

Range status and errors

Selected range

Filename C:\222\RUTRA1\ABKCO18482\The Rolling Stones – Desert Island Survival Kit.wav

Peak level 100.0 %
Extraction speed 3.2 X
Range quality 100.0 %
Test CRC 3D00866B
Copy CRC 3D00866B
Copy OK

No errors occurred

AccurateRip summary

Track 1 not present in database
Track 2 not present in database
Track 3 not present in database
Track 4 not present in database
Track 5 not present in database
Track 6 not present in database
Track 7 not present in database
Track 8 not present in database
Track 9 not present in database
Track 10 not present in database
Track 11 not present in database
Track 12 not present in database
Track 13 not present in database
Track 14 not present in database
Track 15 not present in database

None of the tracks are present in the AccurateRip database

End of status report

==== Log checksum 7EDB8D0F8B716D42520BC8EA3AAC84953472602139D4E560B40EF923BB98DD9A ====

REM GENRE “Classic Rock”
REM DATE 1994
REM DISCID BC0E130F
REM COMMENT “ExactAudioCopy v1.0b3”
PERFORMER “The Rolling Stones”
TITLE “Desert Island Survival Kit”
FILE “The Rolling Stones – Desert Island Survival Kit.flac” WAVE
TRACK 01 AUDIO
TITLE “It’s All Over Now”
PERFORMER “The Rolling Stones”
INDEX 01 00:00:00
TRACK 02 AUDIO
TITLE “2120 South Michigan Avenue”
PERFORMER “The Rolling Stones”
INDEX 00 03:26:15
INDEX 01 03:27:15
TRACK 03 AUDIO
TITLE “The Spider And The Fly”
PERFORMER “The Rolling Stones”
INDEX 00 05:34:70
INDEX 01 05:35:42
TRACK 04 AUDIO
TITLE “Get Off Of My Cloud”
PERFORMER “The Rolling Stones”
INDEX 00 09:13:32
INDEX 01 09:14:30
TRACK 05 AUDIO
TITLE “Under My Thumb”
PERFORMER “The Rolling Stones”
INDEX 00 12:08:57
INDEX 01 12:09:27
TRACK 06 AUDIO
TITLE “Think”
PERFORMER “The Rolling Stones”
INDEX 00 15:49:37
INDEX 01 15:50:45
TRACK 07 AUDIO
TITLE “Ruby Tuesday”
PERFORMER “The Rolling Stones”
INDEX 00 18:58:57
INDEX 01 19:00:57
TRACK 08 AUDIO
TITLE “Miss Amanda Jones”
PERFORMER “The Rolling Stones”
INDEX 00 22:16:62
INDEX 01 22:17:62
TRACK 09 AUDIO
TITLE “Dandelion”
PERFORMER “The Rolling Stones”
INDEX 00 24:58:20
INDEX 01 24:59:12
TRACK 10 AUDIO
TITLE “Jumping Jack Flash”
PERFORMER “The Rolling Stones”
INDEX 00 28:30:40
INDEX 01 28:31:42
TRACK 11 AUDIO
TITLE “Salt Of The Earth”
PERFORMER “The Rolling Stones”
INDEX 00 32:11:55
INDEX 01 32:13:25
TRACK 12 AUDIO
TITLE “You Got The Silver”
PERFORMER “The Rolling Stones”
INDEX 00 37:04:17
INDEX 01 37:04:30
TRACK 13 AUDIO
TITLE “Monkey Man”
PERFORMER “The Rolling Stones”
INDEX 00 39:56:35
INDEX 01 39:57:25
TRACK 14 AUDIO
TITLE “Midnight Rambler – (Live)”
PERFORMER “The Rolling Stones”
INDEX 00 44:09:17
INDEX 01 44:09:62
TRACK 15 AUDIO
TITLE “Sympathy for the Devil (Live)”
PERFORMER “The Rolling Stones”
INDEX 01 53:31:07


Leave a Reply

Your email address will not be published. Required fields are marked *

This site uses Akismet to reduce spam. Learn how your comment data is processed.