3 Doors Down – The Better Life




No Cover available


Artist: 3 Doors Down
Year: 20000
Genre: Rock
Notes: Discogs
Add. Notes:
Watch Songs on: YouTube
Cover incl.: Yes
Encoder: FLAC
Bitrate: ~1000 kBit/s (44.1 kHz/16 Bit/s)
Log & Cue incl.: Yes/Yes
Size: 291,6 MB
Password: “slam” (without ” “)


All Downloads/Hosters are compatible

Download 1
KatFile.com
Turbobit.net
Rapidgator.net
FileFactory.com
Download 2
KatFile.com
Turbobit.net
Rapidgator.net
FileFactory.com

Tracklist:

1 Kryptonite 3:56
2 Loser 4:21
3 Duck & Run 3:52
4 Not Enough 3:16
5 Be Like That 4:25
6 Life Of My Own 3:59
7 Better Life 3:05
8 Down Poison 4:25
9 By My Side 3:20
10 Smack 2:31
11 So I Need You 3:51

EAC-Log, CUE-Sheed & NFO:

Click to open spoiler
Exact Audio Copy V0.99 prebeta 4 from 23. January 2008

EAC extraction logfile from 8. May 2008, 18:25

3 Doors Down / The Better Life

Used drive : HL-DT-STDVD-ROM GDR8163B Adapter: 1 ID: 0

Read mode : Secure
Utilize accurate stream : Yes
Defeat audio cache : Yes
Make use of C2 pointers : No

Read offset correction : 102
Overread into Lead-In and Lead-Out : No
Fill up missing offset samples with silence : Yes
Delete leading and trailing silent blocks : No
Null samples used in CRC calculations : Yes
Used interface : Native Win32 interface for Win NT & 2000
Gap handling : Appended to previous track

Used output format : User Defined Encoder
Selected bitrate : 128 kBit/s
Quality : High
Add ID3 tag : No
Command line compressor : C:\Program Files\FLAC\flac.exe
Additional command line options : -V -8 -T “artist=%a” -T “title=%t” -T “album=%g” -T “date=%y” -T “tracknumber=%n” -T “genre=%m” %s

TOC of the extracted CD

Track | Start | Length | Start sector | End sector
———————————————————
1 | 0:00.00 | 3:53.70 | 0 | 17544
2 | 3:53.70 | 4:24.60 | 17545 | 37404
3 | 8:18.55 | 3:50.45 | 37405 | 54699
4 | 12:09.25 | 3:14.07 | 54700 | 69256
5 | 15:23.32 | 4:25.68 | 69257 | 89199
6 | 19:49.25 | 3:58.30 | 89200 | 107079
7 | 23:47.55 | 3:07.60 | 107080 | 121164
8 | 26:55.40 | 4:21.72 | 121165 | 140811
9 | 31:17.37 | 3:16.30 | 140812 | 155541
10 | 34:33.67 | 2:29.70 | 155542 | 166786
11 | 37:03.62 | 3:47.73 | 166787 | 183884

Track 1

Filename C:\Documents and Settings\-zorin-\Desktop\3 Doors Down – The Better Life (2000) [FLAC]\3 Doors Down\The Better Life\01 – Kryptonite.wav

Pre-gap length 0:00:02.00

Peak level 89.6 %
Track quality 100.0 %
Test CRC D0A83AD9
Copy CRC D0A83AD9
Accurately ripped (confidence 45) [32200E86]
Copy OK

Track 2

Filename C:\Documents and Settings\-zorin-\Desktop\3 Doors Down – The Better Life (2000) [FLAC]\3 Doors Down\The Better Life\02 – Loser.wav

Peak level 88.8 %
Track quality 100.0 %
Test CRC 7EE1E02F
Copy CRC 7EE1E02F
Accurately ripped (confidence 45) [96288218]
Copy OK

Track 3

Filename C:\Documents and Settings\-zorin-\Desktop\3 Doors Down – The Better Life (2000) [FLAC]\3 Doors Down\The Better Life\03 – Duck And Run.wav

Peak level 91.6 %
Track quality 100.0 %
Test CRC 451F218B
Copy CRC 451F218B
Accurately ripped (confidence 43) [01A817B3]
Copy OK

Track 4

Filename C:\Documents and Settings\-zorin-\Desktop\3 Doors Down – The Better Life (2000) [FLAC]\3 Doors Down\The Better Life\04 – Not Enough.wav

Peak level 91.5 %
Track quality 100.0 %
Test CRC F754F680
Copy CRC F754F680
Accurately ripped (confidence 46) [87314F13]
Copy OK

Track 5

Filename C:\Documents and Settings\-zorin-\Desktop\3 Doors Down – The Better Life (2000) [FLAC]\3 Doors Down\The Better Life\05 – Be Like That.wav

Peak level 91.9 %
Track quality 100.0 %
Test CRC 8BC5AB2B
Copy CRC 8BC5AB2B
Accurately ripped (confidence 46) [B5713B65]
Copy OK

Track 6

Filename C:\Documents and Settings\-zorin-\Desktop\3 Doors Down – The Better Life (2000) [FLAC]\3 Doors Down\The Better Life\06 – Life Of My Own.wav

Peak level 89.9 %
Track quality 99.9 %
Test CRC 08B4A012
Copy CRC 08B4A012
Accurately ripped (confidence 46) [3AF819A1]
Copy OK

Track 7

Filename C:\Documents and Settings\-zorin-\Desktop\3 Doors Down – The Better Life (2000) [FLAC]\3 Doors Down\The Better Life\07 – Better Life.wav

Peak level 91.6 %
Track quality 100.0 %
Test CRC EC57C9B6
Copy CRC EC57C9B6
Accurately ripped (confidence 42) [F28EF475]
Copy OK

Track 8

Filename C:\Documents and Settings\-zorin-\Desktop\3 Doors Down – The Better Life (2000) [FLAC]\3 Doors Down\The Better Life\08 – Down Poison.wav

Peak level 91.5 %
Track quality 100.0 %
Test CRC 36F6592A
Copy CRC 36F6592A
Accurately ripped (confidence 43) [DC1FC395]
Copy OK

Track 9

Filename C:\Documents and Settings\-zorin-\Desktop\3 Doors Down – The Better Life (2000) [FLAC]\3 Doors Down\The Better Life\09 – By My Side.wav

Peak level 91.9 %
Track quality 100.0 %
Test CRC 406D2872
Copy CRC 406D2872
Accurately ripped (confidence 42) [8E17D09E]
Copy OK

Track 10

Filename C:\Documents and Settings\-zorin-\Desktop\3 Doors Down – The Better Life (2000) [FLAC]\3 Doors Down\The Better Life\10 – Smack.wav

Peak level 90.7 %
Track quality 100.0 %
Test CRC 87629377
Copy CRC 87629377
Accurately ripped (confidence 42) [E00069AE]
Copy OK

Track 11

Filename C:\Documents and Settings\-zorin-\Desktop\3 Doors Down – The Better Life (2000) [FLAC]\3 Doors Down\The Better Life\11 – So I Need You.wav

Peak level 91.8 %
Track quality 100.0 %
Test CRC 4C860324
Copy CRC 4C860324
Accurately ripped (confidence 45) [817CDC7D]
Copy OK

All tracks accurately ripped

No errors occurred

End of status report

REM GENRE Rock
REM DATE 2000
REM DISCID 8909930B
REM COMMENT “ExactAudioCopy v0.99pb4”
PERFORMER “3 Doors Down”
TITLE “The Better Life”
FILE “3 Doors Down\The Better Life\01 – Kryptonite.wav” WAVE
TRACK 01 AUDIO
TITLE “Kryptonite”
PERFORMER “3 Doors Down”
INDEX 01 00:00:00
FILE “3 Doors Down\The Better Life\02 – Loser.wav” WAVE
TRACK 02 AUDIO
TITLE “Loser”
PERFORMER “3 Doors Down”
INDEX 01 00:00:00
FILE “3 Doors Down\The Better Life\03 – Duck And Run.wav” WAVE
TRACK 03 AUDIO
TITLE “Duck And Run”
PERFORMER “3 Doors Down”
INDEX 01 00:00:00
FILE “3 Doors Down\The Better Life\04 – Not Enough.wav” WAVE
TRACK 04 AUDIO
TITLE “Not Enough”
PERFORMER “3 Doors Down”
INDEX 01 00:00:00
FILE “3 Doors Down\The Better Life\05 – Be Like That.wav” WAVE
TRACK 05 AUDIO
TITLE “Be Like That”
PERFORMER “3 Doors Down”
INDEX 01 00:00:00
FILE “3 Doors Down\The Better Life\06 – Life Of My Own.wav” WAVE
TRACK 06 AUDIO
TITLE “Life Of My Own”
PERFORMER “3 Doors Down”
INDEX 01 00:00:00
FILE “3 Doors Down\The Better Life\07 – Better Life.wav” WAVE
TRACK 07 AUDIO
TITLE “Better Life”
PERFORMER “3 Doors Down”
INDEX 01 00:00:00
FILE “3 Doors Down\The Better Life\08 – Down Poison.wav” WAVE
TRACK 08 AUDIO
TITLE “Down Poison”
PERFORMER “3 Doors Down”
INDEX 01 00:00:00
FILE “3 Doors Down\The Better Life\09 – By My Side.wav” WAVE
TRACK 09 AUDIO
TITLE “By My Side”
PERFORMER “3 Doors Down”
INDEX 01 00:00:00
FILE “3 Doors Down\The Better Life\10 – Smack.wav” WAVE
TRACK 10 AUDIO
TITLE “Smack”
PERFORMER “3 Doors Down”
INDEX 01 00:00:00
FILE “3 Doors Down\The Better Life\11 – So I Need You.wav” WAVE
TRACK 11 AUDIO
TITLE “So I Need You”
PERFORMER “3 Doors Down”
INDEX 01 00:00:00


0

Publication author

offline 4 days

Chaos

3
Comments: 4Publics: 3565Registration: 02-02-2019
Spread the Download

Leave a Reply

Your email address will not be published. Required fields are marked *

Enter the text from the image below
 

This site uses Akismet to reduce spam. Learn how your comment data is processed.