3 Doors Down – Seventeen Days (Special Edition)




No Cover available

Artist: 3 Doors Down
Year: 2005
Genre: Rock
Notes: Discogs
Add. Notes: Special Edition
Watch Songs on: YouTube
Cover incl.: Yes
Encoder: FLAC
Bitrate: ~1000 kBit/s (44.1 kHz/16 Bit/s)
Log & Cue incl.: Yes/Yes
Size: 409,6 MB
Password: “slam” (without ” “)


All Downloads/Hosters are compatible

Download 1
KatFile.com
Turbobit.net
Rapidgator.net
FileFactory.com
Download 2
KatFile.com
Turbobit.net
Rapidgator.net
FileFactory.com

Tracklist:

1 Right Where I Belong 2:31
2 It's Not Me 3:14
3 Let Me Go 3:52
4 Be Somebody 3:15
5 Landing In London 4:31
6 The Real Life 3:52
7 Behind Those Eyes 4:19
8 Never Will I Break 3:50
9 Father's Son 4:12
10 Live For Today 3:47
11 My World 2:55
12 Here By Me 3:47

Bonus Tracks:
13 Let Me Go (Acoustic) 3:48
14 Be Somebody (Acoustic) 3:10
15 Landing In London (Acoustic) 4:45
16 My World (Acoustic) 3:07

EAC-Log, CUE-Sheed & NFO:

Click to open spoiler
Syrup 0.9.9.44, Track.cfg v.0992
Exact Audio Copy V0.99 prebeta 4 from 23. January 2008

EAC extraction logfile from 20. April 2008, 23:33

3 Doors Down / Seventeen Days

Used drive : LITE-ON DVDRW LH-20A1S Adapter: 0 ID: 0

Read mode : Secure
Utilize accurate stream : Yes
Defeat audio cache : Yes
Make use of C2 pointers : No

Read offset correction : 6
Overread into Lead-In and Lead-Out : No
Fill up missing offset samples with silence : Yes
Delete leading and trailing silent blocks : No
Null samples used in CRC calculations : Yes
Used interface : Native Win32 interface for Win NT & 2000
Gap handling : Appended to previous track

Used output format : User Defined Encoder
Selected bitrate : 128 kBit/s
Quality : High
Add ID3 tag : No
Command line compressor : C:\Program Files\Exact Audio Copy\Syrup\Syrup.exe
Additional command line options : REACT %o %s %d “%a” “%g” “%t” “%n” “%x” “%y” “%m” “%e” “%f” “%b” %r

TOC of the extracted CD

Track | Start | Length | Start sector | End sector
———————————————————
1 | 0:00.00 | 2:32.35 | 0 | 11434
2 | 2:32.35 | 3:14.20 | 11435 | 26004
3 | 5:46.55 | 3:52.27 | 26005 | 43431
4 | 9:39.07 | 3:15.35 | 43432 | 58091
5 | 12:54.42 | 4:31.28 | 58092 | 78444
6 | 17:25.70 | 3:52.65 | 78445 | 95909
7 | 21:18.60 | 4:19.12 | 95910 | 115346
8 | 25:37.72 | 3:50.30 | 115347 | 132626
9 | 29:28.27 | 4:12.10 | 132627 | 151536
10 | 33:40.37 | 3:47.48 | 151537 | 168609
11 | 37:28.10 | 3:00.50 | 168610 | 182159
12 | 40:28.60 | 3:50.74 | 182160 | 199483
13 | 44:19.59 | 3:49.31 | 199484 | 216689
14 | 48:09.15 | 3:11.57 | 216690 | 231071
15 | 51:20.72 | 4:47.46 | 231072 | 252642
16 | 56:08.43 | 2:59.38 | 252643 | 266105

Track 1

Filename E:\Temp\Syrup\3 Doors Down – Seventeen Days – 01 – Right Where I Belong.wav

Pre-gap length 0:00:02.00

Peak level 100.0 %
Track quality 100.0 %
Test CRC 07D6540F
Copy CRC 07D6540F
Track not present in AccurateRip database
Copy OK

Track 2

Filename E:\Temp\Syrup\3 Doors Down – Seventeen Days – 02 – It’s Not Me.wav

Pre-gap length 0:00:00.01

Peak level 99.9 %
Track quality 99.9 %
Test CRC D3EE6558
Copy CRC D3EE6558
Track not present in AccurateRip database
Copy OK

Track 3

Filename E:\Temp\Syrup\3 Doors Down – Seventeen Days – 03 – Let Me Go.wav

Peak level 100.0 %
Track quality 100.0 %
Test CRC 76ADD35B
Copy CRC 76ADD35B
Track not present in AccurateRip database
Copy OK

Track 4

Filename E:\Temp\Syrup\3 Doors Down – Seventeen Days – 04 – Be Somebody.wav

Peak level 100.0 %
Track quality 100.0 %
Test CRC 137613F2
Copy CRC 137613F2
Track not present in AccurateRip database
Copy OK

Track 5

Filename E:\Temp\Syrup\3 Doors Down – Seventeen Days – 05 – Landing in London (feat. Bob Seger).wav

Peak level 100.0 %
Track quality 100.0 %
Test CRC E76EF034
Copy CRC E76EF034
Track not present in AccurateRip database
Copy OK

Track 6

Filename E:\Temp\Syrup\3 Doors Down – Seventeen Days – 06 – The Real Life.wav

Pre-gap length 0:00:00.01

Peak level 100.0 %
Track quality 100.0 %
Test CRC 3D9A7AEF
Copy CRC 3D9A7AEF
Track not present in AccurateRip database
Copy OK

Track 7

Filename E:\Temp\Syrup\3 Doors Down – Seventeen Days – 07 – Behind Those Eyes.wav

Peak level 99.9 %
Track quality 100.0 %
Test CRC 278935CA
Copy CRC 278935CA
Track not present in AccurateRip database
Copy OK

Track 8

Filename E:\Temp\Syrup\3 Doors Down – Seventeen Days – 08 – Never Will I Break.wav

Peak level 100.0 %
Track quality 100.0 %
Test CRC 7B616DDF
Copy CRC 7B616DDF
Track not present in AccurateRip database
Copy OK

Track 9

Filename E:\Temp\Syrup\3 Doors Down – Seventeen Days – 09 – Father’s Son.wav

Peak level 100.0 %
Track quality 100.0 %
Test CRC 899C7F6F
Copy CRC 899C7F6F
Track not present in AccurateRip database
Copy OK

Track 10

Filename E:\Temp\Syrup\3 Doors Down – Seventeen Days – 10 – Live for Today.wav

Peak level 100.0 %
Track quality 100.0 %
Test CRC B260D856
Copy CRC B260D856
Track not present in AccurateRip database
Copy OK

Track 11

Filename E:\Temp\Syrup\3 Doors Down – Seventeen Days – 11 – My World.wav

Peak level 100.0 %
Track quality 99.9 %
Test CRC 3753F0D4
Copy CRC 3753F0D4
Track not present in AccurateRip database
Copy OK

Track 12

Filename E:\Temp\Syrup\3 Doors Down – Seventeen Days – 12 – Here By Me.wav

Pre-gap length 0:00:04.54

Peak level 89.1 %
Track quality 100.0 %
Test CRC 45E65824
Copy CRC 45E65824
Track not present in AccurateRip database
Copy OK

Track 13

Filename E:\Temp\Syrup\3 Doors Down – Seventeen Days – 13 – Let Me Go (Acoustic).wav

Pre-gap length 0:00:02.92

Peak level 100.0 %
Track quality 100.0 %
Test CRC C2E2BC95
Copy CRC C2E2BC95
Track not present in AccurateRip database
Copy OK

Track 14

Filename E:\Temp\Syrup\3 Doors Down – Seventeen Days – 14 – Be Somebody (Acoustic).wav

Pre-gap length 0:00:01.86

Peak level 99.9 %
Track quality 100.0 %
Test CRC 90CF98DC
Copy CRC 90CF98DC
Track not present in AccurateRip database
Copy OK

Track 15

Filename E:\Temp\Syrup\3 Doors Down – Seventeen Days – 15 – Landing in London (Acoustic).wav

Pre-gap length 0:00:01.81

Peak level 99.9 %
Track quality 100.0 %
Test CRC C2755FE3
Copy CRC C2755FE3
Track not present in AccurateRip database
Copy OK

Track 16

Filename E:\Temp\Syrup\3 Doors Down – Seventeen Days – 16 – My World (Acoustic).wav

Pre-gap length 0:00:01.68

Peak level 99.9 %
Track quality 100.0 %
Test CRC 17958F5C
Copy CRC 17958F5C
Track not present in AccurateRip database
Copy OK

None of the tracks are present in the AccurateRip database

No errors occurred

End of status report

REM DISCNUMBER 1
REM TOTALDISCS 1
REM GENRE “Alternative Rock”
REM DATE 2005
REM DISCID CA0DDC10
REM COMMENT “ExactAudioCopy v0.99pb4”
CATALOG 0602498819906
PERFORMER “3 Doors Down”
TITLE “Seventeen Days”
FILE “01 – Right Where I Belong.flac” WAVE
TRACK 01 AUDIO
TITLE “Right Where I Belong”
PERFORMER “3 Doors Down”
ISRC USUR10401164
INDEX 01 00:00:00
TRACK 02 AUDIO
TITLE “It’s Not Me”
PERFORMER “3 Doors Down”
ISRC USUR10401159
INDEX 00 02:32:34
FILE “02 – It’s Not Me.flac” WAVE
INDEX 01 00:00:00
FILE “03 – Let Me Go.flac” WAVE
TRACK 03 AUDIO
TITLE “Let Me Go”
PERFORMER “3 Doors Down”
ISRC USUR10401064
INDEX 01 00:00:00
FILE “04 – Be Somebody.flac” WAVE
TRACK 04 AUDIO
TITLE “Be Somebody”
PERFORMER “3 Doors Down”
ISRC USUR10401154
INDEX 01 00:00:00
FILE “05 – Landing in London (feat. Bob Seger).flac” WAVE
TRACK 05 AUDIO
TITLE “Landing in London (feat. Bob Seger)”
PERFORMER “3 Doors Down”
ISRC USUR10401160
INDEX 01 00:00:00
TRACK 06 AUDIO
TITLE “The Real Life”
PERFORMER “3 Doors Down”
ISRC USUR10401160
INDEX 00 04:31:27
FILE “06 – The Real Life.flac” WAVE
INDEX 01 00:00:00
FILE “07 – Behind Those Eyes.flac” WAVE
TRACK 07 AUDIO
TITLE “Behind Those Eyes”
PERFORMER “3 Doors Down”
ISRC USUR10401165
INDEX 01 00:00:00
FILE “08 – Never Will I Break.flac” WAVE
TRACK 08 AUDIO
TITLE “Never Will I Break”
PERFORMER “3 Doors Down”
ISRC USUR10401163
INDEX 01 00:00:00
FILE “09 – Father’s Son.flac” WAVE
TRACK 09 AUDIO
TITLE “Father’s Son”
PERFORMER “3 Doors Down”
ISRC USUR10401156
INDEX 01 00:00:00
FILE “10 – Live for Today.flac” WAVE
TRACK 10 AUDIO
TITLE “Live for Today”
PERFORMER “3 Doors Down”
ISRC USUR10401161
INDEX 01 00:00:00
FILE “11 – My World.flac” WAVE
TRACK 11 AUDIO
TITLE “My World”
PERFORMER “3 Doors Down”
ISRC USUR10401162
INDEX 01 00:00:00
TRACK 12 AUDIO
TITLE “Here By Me”
PERFORMER “3 Doors Down”
ISRC USUR10401158
INDEX 00 02:56:09
FILE “12 – Here By Me.flac” WAVE
INDEX 01 00:00:00
TRACK 13 AUDIO
TITLE “Let Me Go (Acoustic)”
PERFORMER “3 Doors Down”
ISRC USUR10500109
INDEX 00 03:48:05
FILE “13 – Let Me Go (Acoustic).flac” WAVE
INDEX 01 00:00:00
TRACK 14 AUDIO
TITLE “Be Somebody (Acoustic)”
PERFORMER “3 Doors Down”
ISRC USUR10401157
INDEX 00 03:47:41
FILE “14 – Be Somebody (Acoustic).flac” WAVE
INDEX 01 00:00:00
TRACK 15 AUDIO
TITLE “Landing in London (Acoustic)”
PERFORMER “3 Doors Down”
ISRC USUR10500062
INDEX 00 03:09:71
FILE “15 – Landing in London (Acoustic).flac” WAVE
INDEX 01 00:00:00
TRACK 16 AUDIO
TITLE “My World (Acoustic)”
PERFORMER “3 Doors Down”
ISRC USUR10500110
INDEX 00 04:45:70
FILE “16 – My World (Acoustic).flac” WAVE
INDEX 01 00:00:00


Leave a Reply

Your email address will not be published. Required fields are marked *

Enter the text from the image below
 

This site uses Akismet to reduce spam. Learn how your comment data is processed.