3 Doors Down – Away From The Sun (Special Edition)




No Cover available

Artist: 3 Doors Down
Year: 2002
Genre: Rock
Notes: Discogs
Add. Notes: Special Edition
Watch Songs on: YouTube
Cover incl.: Yes
Encoder: FLAC
Bitrate: ~900 kBit/s (44.1 kHz/16 Bit/s)
Log & Cue incl.: Yes/Yes
Size: 370,47 MB
Password: “slam” (without ” “)


All Downloads/Hosters are compatible

Download 1
KatFile.com
Turbobit.net
Rapidgator.net
FileFactory.com
Download 2
KatFile.com
Turbobit.net
Rapidgator.net
FileFactory.com

Tracklist:

1 When I'm Gone 4:20
2 Away From The Sun 3:51
3 The Road I'm On 3:59
4 Ticket To Heaven 3:27
5 Running Out Of Days 3:31
6 Here Without You 3:57
7 I Feel You 4:07
8 Dangerous Game 3:36
9 Changes 3:56
10 Going Down In Flames 3:28
11 Sarah Yellin' 3:17

UK Bonus Tracks
12 Popsong 3:12
13 Kryptonite 3:54
14 Hidden Track (This Time) 5:19

EAC-Log, CUE-Sheed & NFO:

Click to open spoiler
Exact Audio Copy V0.99 prebeta 4 from 23. January 2008

EAC extraction logfile from 8. May 2008, 18:04

3 Doors Down / Away from the Sun

Used drive : HL-DT-STDVD-ROM GDR8163B Adapter: 1 ID: 0

Read mode : Secure
Utilize accurate stream : Yes
Defeat audio cache : Yes
Make use of C2 pointers : No

Read offset correction : 102
Overread into Lead-In and Lead-Out : No
Fill up missing offset samples with silence : Yes
Delete leading and trailing silent blocks : No
Null samples used in CRC calculations : Yes
Used interface : Native Win32 interface for Win NT & 2000
Gap handling : Appended to previous track

Used output format : User Defined Encoder
Selected bitrate : 128 kBit/s
Quality : High
Add ID3 tag : No
Command line compressor : C:\Program Files\FLAC\flac.exe
Additional command line options : -V -8 -T “artist=%a” -T “title=%t” -T “album=%g” -T “date=%y” -T “tracknumber=%n” -T “genre=%m” %s

TOC of the extracted CD

Track | Start | Length | Start sector | End sector
———————————————————
1 | 0:00.00 | 4:21.66 | 0 | 19640
2 | 4:21.66 | 3:53.19 | 19641 | 37134
3 | 8:15.10 | 3:59.60 | 37135 | 55119
4 | 12:14.70 | 3:27.40 | 55120 | 70684
5 | 15:42.35 | 3:31.08 | 70685 | 86517
6 | 19:13.43 | 3:58.42 | 86518 | 104409
7 | 23:12.10 | 4:07.25 | 104410 | 122959
8 | 27:19.35 | 3:36.05 | 122960 | 139164
9 | 30:55.40 | 3:56.65 | 139165 | 156929
10 | 34:52.30 | 3:28.48 | 156930 | 172577
11 | 38:21.03 | 3:18.10 | 172578 | 187437
12 | 41:39.13 | 3:11.40 | 187438 | 201802
13 | 44:50.53 | 3:54.18 | 201803 | 219370
14 | 48:44.71 | 5:18.47 | 219371 | 243267

Track 1

Filename C:\Documents and Settings\-zorin-\Desktop\3 Doors Down – Away From The Sun (Special Edition) (2002) [FLAC]\3 Doors Down\Away from the Sun\01 – When I’m Gone.wav

Pre-gap length 0:00:02.00

Peak level 100.0 %
Track quality 100.0 %
Test CRC 92B03F96
Copy CRC 92B03F96
Accurately ripped (confidence 3) [407429E4]
Copy OK

Track 2

Filename C:\Documents and Settings\-zorin-\Desktop\3 Doors Down – Away From The Sun (Special Edition) (2002) [FLAC]\3 Doors Down\Away from the Sun\02 – Away From The Sun.wav

Pre-gap length 0:00:01.37

Peak level 100.0 %
Track quality 100.0 %
Test CRC EF970D45
Copy CRC EF970D45
Accurately ripped (confidence 3) [3E07B8FA]
Copy OK

Track 3

Filename C:\Documents and Settings\-zorin-\Desktop\3 Doors Down – Away From The Sun (Special Edition) (2002) [FLAC]\3 Doors Down\Away from the Sun\03 – The Road I’m On.wav

Pre-gap length 0:00:01.46

Peak level 100.0 %
Track quality 100.0 %
Test CRC CE5F869F
Copy CRC CE5F869F
Accurately ripped (confidence 3) [F03CCB9F]
Copy OK

Track 4

Filename C:\Documents and Settings\-zorin-\Desktop\3 Doors Down – Away From The Sun (Special Edition) (2002) [FLAC]\3 Doors Down\Away from the Sun\04 – Ticket To Heaven.wav

Peak level 100.0 %
Track quality 99.9 %
Test CRC BBB9D934
Copy CRC BBB9D934
Accurately ripped (confidence 3) [6610B75A]
Copy OK

Track 5

Filename C:\Documents and Settings\-zorin-\Desktop\3 Doors Down – Away From The Sun (Special Edition) (2002) [FLAC]\3 Doors Down\Away from the Sun\05 – Running Out Of Days.wav

Peak level 100.0 %
Track quality 100.0 %
Test CRC 46336EAD
Copy CRC 46336EAD
Accurately ripped (confidence 3) [241D79D1]
Copy OK

Track 6

Filename C:\Documents and Settings\-zorin-\Desktop\3 Doors Down – Away From The Sun (Special Edition) (2002) [FLAC]\3 Doors Down\Away from the Sun\06 – Here Without You.wav

Peak level 100.0 %
Track quality 100.0 %
Test CRC 7B41E96E
Copy CRC 7B41E96E
Accurately ripped (confidence 3) [2A1B84E7]
Copy OK

Track 7

Filename C:\Documents and Settings\-zorin-\Desktop\3 Doors Down – Away From The Sun (Special Edition) (2002) [FLAC]\3 Doors Down\Away from the Sun\07 – I Feel You.wav

Peak level 100.0 %
Track quality 100.0 %
Test CRC 091189C8
Copy CRC 091189C8
Accurately ripped (confidence 3) [34F78996]
Copy OK

Track 8

Filename C:\Documents and Settings\-zorin-\Desktop\3 Doors Down – Away From The Sun (Special Edition) (2002) [FLAC]\3 Doors Down\Away from the Sun\08 – Dangerous Game.wav

Peak level 100.0 %
Track quality 100.0 %
Test CRC BE05FEED
Copy CRC BE05FEED
Accurately ripped (confidence 3) [36309C95]
Copy OK

Track 9

Filename C:\Documents and Settings\-zorin-\Desktop\3 Doors Down – Away From The Sun (Special Edition) (2002) [FLAC]\3 Doors Down\Away from the Sun\09 – Changes.wav

Peak level 100.0 %
Track quality 100.0 %
Test CRC F7A22B32
Copy CRC F7A22B32
Accurately ripped (confidence 3) [BC3AA109]
Copy OK

Track 10

Filename C:\Documents and Settings\-zorin-\Desktop\3 Doors Down – Away From The Sun (Special Edition) (2002) [FLAC]\3 Doors Down\Away from the Sun\10 – Going Down In Flames.wav

Peak level 100.0 %
Track quality 100.0 %
Test CRC C2CA5E6E
Copy CRC C2CA5E6E
Accurately ripped (confidence 3) [A48490EC]
Copy OK

Track 11

Filename C:\Documents and Settings\-zorin-\Desktop\3 Doors Down – Away From The Sun (Special Edition) (2002) [FLAC]\3 Doors Down\Away from the Sun\11 – Sarah Yellin’.wav

Peak level 100.0 %
Track quality 100.0 %
Test CRC 570B606B
Copy CRC 570B606B
Accurately ripped (confidence 3) [4E7BF029]
Copy OK

Track 12

Filename C:\Documents and Settings\-zorin-\Desktop\3 Doors Down – Away From The Sun (Special Edition) (2002) [FLAC]\3 Doors Down\Away from the Sun\12 – Popsong.wav

Pre-gap length 0:00:00.25

Peak level 100.0 %
Track quality 100.0 %
Test CRC B520FB3D
Copy CRC B520FB3D
Accurately ripped (confidence 3) [1E91A0F9]
Copy OK

Track 13

Filename C:\Documents and Settings\-zorin-\Desktop\3 Doors Down – Away From The Sun (Special Edition) (2002) [FLAC]\3 Doors Down\Away from the Sun\13 – Kryptonite.wav

Peak level 95.5 %
Track quality 100.0 %
Test CRC 50D07365
Copy CRC 50D07365
Accurately ripped (confidence 3) [501453E3]
Copy OK

Track 14

Filename C:\Documents and Settings\-zorin-\Desktop\3 Doors Down – Away From The Sun (Special Edition) (2002) [FLAC]\3 Doors Down\Away from the Sun\14 – Hidden track.wav

Peak level 100.0 %
Track quality 100.0 %
Test CRC 821F064B
Copy CRC 821F064B
Track not present in AccurateRip database
Copy OK

13 track(s) accurately ripped
1 track(s) not present in the AccurateRip database

No errors occurred

End of status report

REM GENRE Rock
REM DATE 2002
REM DISCID C50CAB0E
REM COMMENT “ExactAudioCopy v0.99pb4”
PERFORMER “3 Doors Down”
TITLE “Away from the Sun”
FILE “3 Doors Down\Away from the Sun\01 – When I’m Gone.wav” WAVE
TRACK 01 AUDIO
TITLE “When I’m Gone”
PERFORMER “3 Doors Down”
INDEX 01 00:00:00
TRACK 02 AUDIO
TITLE “Away From The Sun”
PERFORMER “3 Doors Down”
INDEX 00 04:20:38
FILE “3 Doors Down\Away from the Sun\02 – Away From The Sun.wav” WAVE
INDEX 01 00:00:00
TRACK 03 AUDIO
TITLE “The Road I’m On”
PERFORMER “3 Doors Down”
INDEX 00 03:51:59
FILE “3 Doors Down\Away from the Sun\03 – The Road I’m On.wav” WAVE
INDEX 01 00:00:00
FILE “3 Doors Down\Away from the Sun\04 – Ticket To Heaven.wav” WAVE
TRACK 04 AUDIO
TITLE “Ticket To Heaven”
PERFORMER “3 Doors Down”
INDEX 01 00:00:00
FILE “3 Doors Down\Away from the Sun\05 – Running Out Of Days.wav” WAVE
TRACK 05 AUDIO
TITLE “Running Out Of Days”
PERFORMER “3 Doors Down”
INDEX 01 00:00:00
FILE “3 Doors Down\Away from the Sun\06 – Here Without You.wav” WAVE
TRACK 06 AUDIO
TITLE “Here Without You”
PERFORMER “3 Doors Down”
INDEX 01 00:00:00
FILE “3 Doors Down\Away from the Sun\07 – I Feel You.wav” WAVE
TRACK 07 AUDIO
TITLE “I Feel You”
PERFORMER “3 Doors Down”
INDEX 01 00:00:00
FILE “3 Doors Down\Away from the Sun\08 – Dangerous Game.wav” WAVE
TRACK 08 AUDIO
TITLE “Dangerous Game”
PERFORMER “3 Doors Down”
INDEX 01 00:00:00
FILE “3 Doors Down\Away from the Sun\09 – Changes.wav” WAVE
TRACK 09 AUDIO
TITLE “Changes”
PERFORMER “3 Doors Down”
INDEX 01 00:00:00
FILE “3 Doors Down\Away from the Sun\10 – Going Down In Flames.wav” WAVE
TRACK 10 AUDIO
TITLE “Going Down In Flames”
PERFORMER “3 Doors Down”
INDEX 01 00:00:00
FILE “3 Doors Down\Away from the Sun\11 – Sarah Yellin’.wav” WAVE
TRACK 11 AUDIO
TITLE “Sarah Yellin'”
PERFORMER “3 Doors Down”
INDEX 01 00:00:00
TRACK 12 AUDIO
TITLE “Popsong”
PERFORMER “3 Doors Down”
INDEX 00 03:17:66
FILE “3 Doors Down\Away from the Sun\12 – Popsong.wav” WAVE
INDEX 01 00:00:00
FILE “3 Doors Down\Away from the Sun\13 – Kryptonite.wav” WAVE
TRACK 13 AUDIO
TITLE “Kryptonite”
PERFORMER “3 Doors Down”
INDEX 01 00:00:00
FILE “3 Doors Down\Away from the Sun\14 – Hidden track.wav” WAVE
TRACK 14 AUDIO
TITLE “Hidden track”
PERFORMER “3 Doors Down”
INDEX 01 00:00:00


Leave a Reply

Your email address will not be published. Required fields are marked *

Enter the text from the image below
 

This site uses Akismet to reduce spam. Learn how your comment data is processed.