3 Doors Down – Another 700 Miles




No Cover available

Artist: 3 Doors Down
Year: 2003
Genre: Rock
Notes: Discogs
Add. Notes:
Watch Songs on: YouTube
Cover incl.: Yes
Encoder: FLAC
Bitrate: ~1000 kBit/s (44.1 kHz/16 Bit/s)
Log & Cue incl.: Yes/Yes
Size: 200,2 MB
Password: “slam” (without ” “)


All Downloads/Hosters are compatible

Download 1
KatFile.com
Turbobit.net
Rapidgator.net
FileFactory.com
Download 2
KatFile.com
Turbobit.net
Rapidgator.net
FileFactory.com

Tracklist:

1 Duck And Run 4:35
2 When I'm Gone (Intro) 1:18
3 When I'm Gone 4:21
4 Kryptonite 4:14
5 Here Without You 4:11
6 It's Not Me 3:47
7 That Smell 6:01

EAC-Log, CUE-Sheed & NFO:

Click to open spoiler
EAC extraction logfile from 22. April 2008, 1:04 for CD
3 Doors Down / Another 700 Miles

Used drive : LITE-ON DVDRW LH-20A1L Adapter: 0 ID: 1
Read mode : Secure with NO C2, accurate stream, disable cache
Read offset correction : 6
Overread into Lead-In and Lead-Out : No

Used output format : C:\Program Files\Exact Audio Copy\flac.exe (User Defined Encoder)
192 kBit/s
Additional command line options : -V -8 -T “artist=%a” -T “title=%t” -T “album=%g” -T “date=%y” -T “tracknumber=%n” -T “genre=%m” %s

Other options :
Fill up missing offset samples with silence : Yes
Delete leading and trailing silent blocks : No
Installed external ASPI interface

Track 1
Filename H:\FLAC\3 Doors Down\3 Doors Down – 2003 – Another 700 Miles\01 – 3 Doors Down – Duck And Run.wav

Pre-gap length 0:00:02.00

Peak level 100.0 %
Track quality 100.0 %
Test CRC 2B36BFE4
Copy CRC 2B36BFE4
Copy OK

Track 2
Filename H:\FLAC\3 Doors Down\3 Doors Down – 2003 – Another 700 Miles\02 – 3 Doors Down – When I’m Gone (Intro).wav

Peak level 100.0 %
Track quality 100.0 %
Test CRC 7A7926F9
Copy CRC 7A7926F9
Copy OK

Track 3
Filename H:\FLAC\3 Doors Down\3 Doors Down – 2003 – Another 700 Miles\03 – 3 Doors Down – When I’m Gone.wav

Peak level 100.0 %
Track quality 99.9 %
Test CRC 0F9DCB4F
Copy CRC 0F9DCB4F
Copy OK

Track 4
Filename H:\FLAC\3 Doors Down\3 Doors Down – 2003 – Another 700 Miles\04 – 3 Doors Down – Kryptonite.wav

Peak level 100.0 %
Track quality 100.0 %
Test CRC 174B1897
Copy CRC 174B1897
Copy OK

Track 5
Filename H:\FLAC\3 Doors Down\3 Doors Down – 2003 – Another 700 Miles\05 – 3 Doors Down – Here Without You.wav

Peak level 100.0 %
Track quality 100.0 %
Test CRC 3CE49C6C
Copy CRC 3CE49C6C
Copy OK

Track 6
Filename H:\FLAC\3 Doors Down\3 Doors Down – 2003 – Another 700 Miles\06 – 3 Doors Down – It’s Not Me.wav

Peak level 100.0 %
Track quality 100.0 %
Test CRC D103434F
Copy CRC D103434F
Copy OK

Track 7
Filename H:\FLAC\3 Doors Down\3 Doors Down – 2003 – Another 700 Miles\07 – 3 Doors Down – That Smell.wav

Peak level 100.0 %
Track quality 100.0 %
Test CRC F5B957E6
Copy CRC F5B957E6
Copy OK

No errors occured

End of status report

REM GENRE Rock
REM DATE 2003
REM DISCID 4D06AE07
REM COMMENT “ExactAudioCopy v0.95b3”
PERFORMER “3 Doors Down”
TITLE “Another 700 Miles”
FILE “01 – 3 Doors Down – Duck And Run.wav” WAVE
TRACK 01 AUDIO
TITLE “Duck And Run”
PERFORMER “3 Doors Down”
INDEX 01 00:00:00
FILE “02 – 3 Doors Down – When I’m Gone (Intro).wav” WAVE
TRACK 02 AUDIO
TITLE “When I’m Gone (Intro)”
PERFORMER “3 Doors Down”
INDEX 01 00:00:00
FILE “03 – 3 Doors Down – When I’m Gone.wav” WAVE
TRACK 03 AUDIO
TITLE “When I’m Gone”
PERFORMER “3 Doors Down”
INDEX 01 00:00:00
FILE “04 – 3 Doors Down – Kryptonite.wav” WAVE
TRACK 04 AUDIO
TITLE “Kryptonite”
PERFORMER “3 Doors Down”
INDEX 01 00:00:00
FILE “05 – 3 Doors Down – Here Without You.wav” WAVE
TRACK 05 AUDIO
TITLE “Here Without You”
PERFORMER “3 Doors Down”
INDEX 01 00:00:00
FILE “06 – 3 Doors Down – It’s Not Me.wav” WAVE
TRACK 06 AUDIO
TITLE “It’s Not Me”
PERFORMER “3 Doors Down”
INDEX 01 00:00:00
FILE “07 – 3 Doors Down – That Smell.wav” WAVE
TRACK 07 AUDIO
TITLE “That Smell”
PERFORMER “3 Doors Down”
INDEX 01 00:00:00


Leave a Reply

Your email address will not be published. Required fields are marked *

This site uses Akismet to reduce spam. Learn how your comment data is processed.