3 Doors Down – 3 Doors Down (Deluxe Edition)




No Cover available

Artist: 3 Doors Down
Year: 2008
Genre: Rock
Notes: Discogs
Add. Notes: Deluxe Edition
Watch Songs on: YouTube
Cover incl.: Yes
Encoder: FLAC
Bitrate: ~900 kBit/s (44.1 kHz/16 Bit/s)
Log & Cue incl.: Yes/Yes
Size: 416,9 MB
Password: “slam” (without ” “)


All Downloads/Hosters are compatible

Download 1
KatFile.com
Turbobit.net
Rapidgator.net
FileFactory.com
Download 2
KatFile.com
Turbobit.net
Rapidgator.net
FileFactory.com

Tracklist:

1 Train 3:10
2 Citizen / Soldier 3:52
3 It's Not My Time 4:01
4 Let Me Be Myself 3:48
5 Pages 3:47
6 It's The Only One You've Got 4:23
7 Give It To Me 3:21
8 These Days 3:39
9 Your Arms Feel Like Home 3:44
10 Runaway 3:24
11 When It's Over 4:18
12 She Don't Want The World 4:07

Bonus Tracks
13 Feet In The Water 4:34
14 Who Are You 3:08

EAC-Log, CUE-Sheed & NFO:

Click to open spoiler
Exact Audio Copy V0.99 prebeta 4 from 23. January 2008

EAC extraction logfile from 8. June 2008, 0:53

3 Doors Down / 3 Doors Down (Best Buy Exclusive Edition)

Used drive : SONY DVD RW DW-Q30A Adapter: 2 ID: 0

Read mode : Secure
Utilize accurate stream : Yes
Defeat audio cache : Yes
Make use of C2 pointers : No

Read offset correction : 6
Overread into Lead-In and Lead-Out : No
Fill up missing offset samples with silence : Yes
Delete leading and trailing silent blocks : No
Null samples used in CRC calculations : Yes
Used interface : Native Win32 interface for Win NT & 2000
Gap handling : Appended to previous track

Used output format : User Defined Encoder
Selected bitrate : 128 kBit/s
Quality : High
Add ID3 tag : No
Command line compressor : C:\Program Files\FLAC\flac.exe
Additional command line options : -8 -V -T “ARTIST=%a” -T “TITLE=%t” -T “ALBUM=%g” -T “DATE=%y” -T “TRACKNUMBER=%n” -T “GENRE=%m” -T “COMMENT=EAC FLAC -8” %s

TOC of the extracted CD

Track | Start | Length | Start sector | End sector
———————————————————
1 | 0:00.00 | 3:10.44 | 0 | 14293
2 | 3:10.44 | 3:52.68 | 14294 | 31761
3 | 7:03.37 | 4:01.72 | 31762 | 49908
4 | 11:05.34 | 3:48.46 | 49909 | 67054
5 | 14:54.05 | 3:47.61 | 67055 | 84140
6 | 18:41.66 | 4:23.68 | 84141 | 103933
7 | 23:05.59 | 3:21.71 | 103934 | 119079
8 | 26:27.55 | 3:39.47 | 119080 | 135551
9 | 30:07.27 | 3:44.17 | 135552 | 152368
10 | 33:51.44 | 3:24.27 | 152369 | 167695
11 | 37:15.71 | 4:18.32 | 167696 | 187077
12 | 41:34.28 | 4:07.53 | 187078 | 205655
13 | 45:42.06 | 4:34.37 | 205656 | 226242
14 | 50:16.43 | 3:08.54 | 226243 | 240396

Track 1

Filename Z:\eac\01 – Train.wav

Pre-gap length 0:00:02.00

Peak level 99.9 %
Track quality 99.9 %
Test CRC 79F66162
Copy CRC 79F66162
Track not present in AccurateRip database
Copy OK

Track 2

Filename Z:\eac\02 – Citizen,Soldier.wav

Peak level 99.9 %
Track quality 100.0 %
Test CRC 8252A2D7
Copy CRC 8252A2D7
Track not present in AccurateRip database
Copy OK

Track 3

Filename Z:\eac\03 – It’s Not My Time.wav

Peak level 99.9 %
Track quality 100.0 %
Test CRC 217D93C8
Copy CRC 217D93C8
Track not present in AccurateRip database
Copy OK

Track 4

Filename Z:\eac\04 – Let Me be Myself.wav

Peak level 99.9 %
Track quality 100.0 %
Test CRC F15F5428
Copy CRC F15F5428
Track not present in AccurateRip database
Copy OK

Track 5

Filename Z:\eac\05 – Pages.wav

Peak level 99.9 %
Track quality 99.9 %
Test CRC B4F5742A
Copy CRC B4F5742A
Track not present in AccurateRip database
Copy OK

Track 6

Filename Z:\eac\06 – It’s the Only One You’ve Got.wav

Peak level 99.9 %
Track quality 100.0 %
Test CRC 64038A7E
Copy CRC 64038A7E
Track not present in AccurateRip database
Copy OK

Track 7

Filename Z:\eac\07 – Give it to Me.wav

Pre-gap length 0:00:01.61

Peak level 99.9 %
Track quality 100.0 %
Test CRC FD4DB9C3
Copy CRC FD4DB9C3
Track not present in AccurateRip database
Copy OK

Track 8

Filename Z:\eac\08 – These Days.wav

Peak level 99.9 %
Track quality 100.0 %
Test CRC C163E607
Copy CRC C163E607
Track not present in AccurateRip database
Copy OK

Track 9

Filename Z:\eac\09 – Your Arms Feel Like Home.wav

Peak level 99.9 %
Track quality 100.0 %
Test CRC F5849D6B
Copy CRC F5849D6B
Track not present in AccurateRip database
Copy OK

Track 10

Filename Z:\eac\10 – Runaway.wav

Peak level 99.9 %
Track quality 100.0 %
Test CRC 7F6CFE27
Copy CRC 7F6CFE27
Track not present in AccurateRip database
Copy OK

Track 11

Filename Z:\eac\11 – When it’s Over.wav

Peak level 99.9 %
Track quality 100.0 %
Test CRC 5641ADA5
Copy CRC 5641ADA5
Track not present in AccurateRip database
Copy OK

Track 12

Filename Z:\eac\12 – She Don’t Want the World.wav

Pre-gap length 0:00:01.77

Peak level 99.9 %
Track quality 99.9 %
Test CRC D8A2BDE9
Copy CRC D8A2BDE9
Track not present in AccurateRip database
Copy OK

Track 13

Filename Z:\eac\13 – Feet in the Water.wav

Pre-gap length 0:00:03.76

Peak level 99.9 %
Track quality 100.0 %
Test CRC 5560405E
Copy CRC 5560405E
Track not present in AccurateRip database
Copy OK

Track 14

Filename Z:\eac\14 – Who Are You.wav

Pre-gap length 0:00:02.26

Peak level 99.9 %
Track quality 100.0 %
Test CRC B38007FF
Copy CRC B38007FF
Track not present in AccurateRip database
Copy OK

None of the tracks are present in the AccurateRip database

No errors occurred

End of status report

REM GENRE “Alternative Rock”
REM DATE 2008
REM DISCID CE0C850E
REM COMMENT “ExactAudioCopy v0.99pb4”
PERFORMER “3 Doors Down”
TITLE “3 Doors Down (Best Buy Exclusive Edition)”
FILE “01 – Train.wav” WAVE
TRACK 01 AUDIO
TITLE “Train”
PERFORMER “3 Doors Down”
FLAGS DCP
INDEX 01 00:00:00
FILE “02 – Citizen,Soldier.wav” WAVE
TRACK 02 AUDIO
TITLE “Citizen/Soldier”
PERFORMER “3 Doors Down”
FLAGS DCP
INDEX 01 00:00:00
FILE “03 – It’s Not My Time.wav” WAVE
TRACK 03 AUDIO
TITLE “It’s Not My Time”
PERFORMER “3 Doors Down”
FLAGS DCP
INDEX 01 00:00:00
FILE “04 – Let Me be Myself.wav” WAVE
TRACK 04 AUDIO
TITLE “Let Me be Myself”
PERFORMER “3 Doors Down”
FLAGS DCP
INDEX 01 00:00:00
FILE “05 – Pages.wav” WAVE
TRACK 05 AUDIO
TITLE “Pages”
PERFORMER “3 Doors Down”
FLAGS DCP
INDEX 01 00:00:00
FILE “06 – It’s the Only One You’ve Got.wav” WAVE
TRACK 06 AUDIO
TITLE “It’s the Only One You’ve Got”
PERFORMER “3 Doors Down”
FLAGS DCP
INDEX 01 00:00:00
TRACK 07 AUDIO
TITLE “Give it to Me”
PERFORMER “3 Doors Down”
FLAGS DCP
INDEX 00 04:22:22
FILE “07 – Give it to Me.wav” WAVE
INDEX 01 00:00:00
FILE “08 – These Days.wav” WAVE
TRACK 08 AUDIO
TITLE “These Days”
PERFORMER “3 Doors Down”
FLAGS DCP
INDEX 01 00:00:00
FILE “09 – Your Arms Feel Like Home.wav” WAVE
TRACK 09 AUDIO
TITLE “Your Arms Feel Like Home”
PERFORMER “3 Doors Down”
FLAGS DCP
INDEX 01 00:00:00
FILE “10 – Runaway.wav” WAVE
TRACK 10 AUDIO
TITLE “Runaway”
PERFORMER “3 Doors Down”
FLAGS DCP
INDEX 01 00:00:00
FILE “11 – When it’s Over.wav” WAVE
TRACK 11 AUDIO
TITLE “When it’s Over”
PERFORMER “3 Doors Down”
FLAGS DCP
INDEX 01 00:00:00
TRACK 12 AUDIO
TITLE “She Don’t Want the World”
PERFORMER “3 Doors Down”
FLAGS DCP
INDEX 00 04:16:49
FILE “12 – She Don’t Want the World.wav” WAVE
INDEX 01 00:00:00
TRACK 13 AUDIO
TITLE “Feet in the Water”
PERFORMER “3 Doors Down”
FLAGS DCP
INDEX 00 04:03:71
FILE “13 – Feet in the Water.wav” WAVE
INDEX 01 00:00:00
TRACK 14 AUDIO
TITLE “Who Are You”
PERFORMER “3 Doors Down”
FLAGS DCP
INDEX 00 04:32:17
FILE “14 – Who Are You.wav” WAVE
INDEX 01 00:00:00


0

Publication author

offline 13 hours

Chaos

3
Comments: 4Publics: 3418Registration: 02-02-2019
Spread the Download

Leave a Reply

Your email address will not be published. Required fields are marked *

Enter the text from the image below
 

This site uses Akismet to reduce spam. Learn how your comment data is processed.