ZSK – Herz Für Die Sache




[Total: 0    Average: 0/5]

Artist: ZSK
Year: 2013
Genre: Punk
Notes: Discogs
Add. Notes:
Cover incl.: Yes
Encoder: FLAC
Bitrate: ~1000 kBit/s (44.1 kHz/16 Bit/s)
Log & Cue incl.: Yes
Size: 273,96 MB
Password: “slam” (without ” “)


All Downloads/Hosters are compatible

Download 1
Share-online.biz
Rapidgator.net
KatFile.com
UploadRar.com
Download 2
Share-online.biz
Rapidgator.net
KatFile.com
UploadRar.com

Tracklist:

1 - Antifascista - 2:21
2 - Der Richtige Weg - 2:27
3 - Herz Für Die Sache - 3:53
4 - Was Wollt Ihr Hören? - 2:25
5 - Before We Go - 1:59
6 - Lichterketten - 2:17
7 - Bis Jetzt Ging Alles Gut - 2:22
8 - This Fight Is Far From Over - 2:37
9 - Unser Schiff - 2:33
10 - Viel Glück - 2:01
11 - Punkverrat - 3:27
12 - Soll Das Alles Gewesen Sein? - 3:41

EAC-Log, CUE-Sheed & NFO:

Click to open spoiler
Exact Audio Copy V1.3 from 2. September 2016

EAC extraction logfile from 23. October 2018, 20:28

ZSK / Herz Fur Die Sache

Used drive : PIONEER DVD-RW DVR-221L Adapter: 1 ID: 1

Read mode : Secure
Utilize accurate stream : Yes
Defeat audio cache : Yes
Make use of C2 pointers : No

Read offset correction : 6
Overread into Lead-In and Lead-Out : No
Fill up missing offset samples with silence : Yes
Delete leading and trailing silent blocks : No
Null samples used in CRC calculations : Yes
Used interface : Native Win32 interface for Win NT & 2000

Used output format : User Defined Encoder
Selected bitrate : 1024 kBit/s
Quality : High
Add ID3 tag : No
Command line compressor : C:\Program Files (x86)\Exact Audio Copy\Flac\flac.exe
Additional command line options : -V -8 -T “Date=%year%” -T “Genre=%genre%” %source%

TOC of the extracted CD

Track | Start | Length | Start sector | End sector
———————————————————
1 | 0:00.00 | 2:20.72 | 0 | 10571
2 | 2:20.72 | 2:27.31 | 10572 | 21627
3 | 4:48.28 | 3:53.22 | 21628 | 39124
4 | 8:41.50 | 2:24.73 | 39125 | 49997
5 | 11:06.48 | 1:58.68 | 49998 | 58915
6 | 13:05.41 | 2:17.21 | 58916 | 69211
7 | 15:22.62 | 2:21.55 | 69212 | 79841
8 | 17:44.42 | 2:36.48 | 79842 | 91589
9 | 20:21.15 | 2:32.46 | 91590 | 103035
10 | 22:53.61 | 2:01.36 | 103036 | 112146
11 | 24:55.22 | 3:27.01 | 112147 | 127672
12 | 28:22.23 | 3:41.53 | 127673 | 144300

Range status and errors

Selected range

Filename D:\Mutineer\ZSK ‎- Herz Für Die Sache\ZSK – Herz Fur Die Sache.wav

Peak level 97.7 %
Extraction speed 4.0 X
Range quality 100.0 %
Test CRC 34F87E3B
Copy CRC 34F87E3B
Copy OK

No errors occurred

AccurateRip summary

Track 1 accurately ripped (confidence 5) [43BDC64F] (AR v2)
Track 2 accurately ripped (confidence 5) [658F3F64] (AR v2)
Track 3 accurately ripped (confidence 5) [849B5283] (AR v2)
Track 4 accurately ripped (confidence 5) [4DB8EC4E] (AR v2)
Track 5 accurately ripped (confidence 4) [1E36EEA5] (AR v2)
Track 6 accurately ripped (confidence 5) [E0C6A56A] (AR v2)
Track 7 accurately ripped (confidence 5) [B517659B] (AR v2)
Track 8 accurately ripped (confidence 5) [FE6CAAE0] (AR v2)
Track 9 accurately ripped (confidence 5) [F6B20ED5] (AR v2)
Track 10 accurately ripped (confidence 5) [F0497DF8] (AR v2)
Track 11 accurately ripped (confidence 5) [8A1A9C64] (AR v2)
Track 12 accurately ripped (confidence 5) [62137796] (AR v2)

All tracks accurately ripped

End of status report

==== Log checksum 053BB85E161817239F6DDF0DA865C22867D46836B4209851D242E21E774A9F53 ====

REM GENRE “Punk Rock”
REM DATE 2013
REM DISCID 9D07840C
REM COMMENT “ExactAudioCopy v1.3”
PERFORMER “ZSK”
TITLE “Herz Fur Die Sache”
REM COMPOSER “”
FILE “ZSK – Herz Fur Die Sache.flac” WAVE
TRACK 01 AUDIO
TITLE “Antifascista”
PERFORMER “ZSK”
REM COMPOSER “”
INDEX 01 00:00:00
TRACK 02 AUDIO
TITLE “Der Richtige Weg”
PERFORMER “ZSK”
REM COMPOSER “”
INDEX 00 02:19:73
INDEX 01 02:20:72
TRACK 03 AUDIO
TITLE “Herz Fur Die Sache”
PERFORMER “ZSK”
REM COMPOSER “”
INDEX 01 04:48:28
TRACK 04 AUDIO
TITLE “Was Wollt Ihr Horen?”
PERFORMER “ZSK”
REM COMPOSER “”
INDEX 01 08:41:50
TRACK 05 AUDIO
TITLE “Before We Go”
PERFORMER “ZSK”
REM COMPOSER “”
INDEX 01 11:06:48
TRACK 06 AUDIO
TITLE “Lichterketten”
PERFORMER “ZSK”
REM COMPOSER “”
INDEX 00 13:04:41
INDEX 01 13:05:41
TRACK 07 AUDIO
TITLE “Bis Jetzt Ging Alles Gut”
PERFORMER “ZSK”
REM COMPOSER “”
INDEX 01 15:22:62
TRACK 08 AUDIO
TITLE “This Fight Is Far From Over”
PERFORMER “ZSK”
REM COMPOSER “”
INDEX 01 17:44:42
TRACK 09 AUDIO
TITLE “Unser Schiff”
PERFORMER “ZSK”
REM COMPOSER “”
INDEX 01 20:21:15
TRACK 10 AUDIO
TITLE “Viel Gluck”
PERFORMER “ZSK”
REM COMPOSER “”
INDEX 01 22:53:61
TRACK 11 AUDIO
TITLE “Punkverrat”
PERFORMER “ZSK”
REM COMPOSER “”
INDEX 01 24:55:22
TRACK 12 AUDIO
TITLE “Soll Das Alles Gewesen Sein?”
PERFORMER “ZSK”
REM COMPOSER “”
INDEX 01 28:22:23


Spread the Download

Leave a Reply

Your email address will not be published. Required fields are marked *

Enter the text from the image below
 

This site uses Akismet to reduce spam. Learn how your comment data is processed.