Uriah Heep – Wonderworld




[Total: 0    Average: 0/5]

Artist: Uriah Heep
Year: 1974/1990
Genre: Rock
Notes: Discogs
Add. Notes:
Cover incl.: Yes
Encoder: FLAC
Bitrate: ~800 kBit/s (44.1 kHz/16 Bit/s)
Log & Cue incl.: Yes
Size: 318,57 MB
Password: “slam” (without ” “)


All Downloads/Hosters are compatible

Download 1
Share-online.biz
Rapidgator.net
KatFile.com
UploadRar.com
Download 2
Share-online.biz
Rapidgator.net
KatFile.com
UploadRar.com

Tracklist:

1 - Wonderworld - 1:29
2 - Suicidal Man - 3:38
3 - The Shadows And The Wind - 4:27
4 - So Tired - 3:39
5 - The Easy Road - 2:43
6 - Something Or Nothing - 2:56
7 - I Won't Mind - 5:59
8 - We Got We - 3:39
9 - Dreams - 6:10

EAC-Log, CUE-Sheed & NFO:

Click to open spoiler
Exact Audio Copy V0.99 prebeta 5 from 4. May 2009

Отчёт EAC об извлечении, выполненном 14. апреля 2010, 12:26

Uriah Heep / Wonderworld

Дисковод: Optiarc DVD RW AD-7240S Adapter: 1 ID: 0

Режим чтения : Достоверность
Использование точного потока : Да
Отключение кэша аудио : Да
Использование указателей C2 : Нет

Коррекция смещения при чтении : 48
Способность читать области Lead-in и Lead-out : Нет
Заполнение пропущенных сэмплов тишиной : Да
Удаление блоков с тишиной в начале и конце : Нет
При вычислениях CRC использовались нулевые сэмплы : Да
Интерфейс : Встроенный Win32-интерфейс для Win NT/2000

Выходной формат : Пользовательский кодировщик
Выбранный битрейт : 768 kBit/s
Качество : Высокий
Добавление ID3-тэга : Нет
Утилита сжатия : C:\Program Files\Exact Audio Copy\FLAC\FLAC.EXE
Дополнительные параметры : -6 -V -T “ARTIST=%a” -T “TITLE=%t” -T “ALBUM=%g” -T “DATE=%y” -T “TRACKNUMBER=%n” -T “GENRE=%m” -T “COMMENT=%e” %s -o %d

TOC извлечённого CD

Трек | Старт | Длительность | Начальный сектор | Конечный сектор
———————————————————————
1 | 0:00.33 | 4:34.05 | 33 | 20587
2 | 4:34.38 | 3:40.52 | 20588 | 37139
3 | 8:15.15 | 4:33.23 | 37140 | 57637
4 | 12:48.38 | 3:42.00 | 57638 | 74287
5 | 16:30.38 | 2:44.70 | 74288 | 86657
6 | 19:15.33 | 2:59.12 | 86658 | 100094
7 | 22:14.45 | 6:04.15 | 100095 | 127409
8 | 28:18.60 | 3:39.53 | 127410 | 143887
9 | 31:58.38 | 6:10.70 | 143888 | 171707

Характеристики диапазона извлечения и сообщения об ошибках

Выбранный диапазон

Имя файла E:\music\Музон\Uriah Heep\Wonderworld\Uriah Heep – Wonderworld.wav

Пиковый уровень 100.0 %
Качество диапазона 100.0 %
CRC теста 06C1E5B9
CRC копии 06C1E5B9
Копирование… OK

Ошибок не произошло

AccurateRip: сводка

Трек 1 точное извлечение (доверие 13) [DEEB3210]
Трек 2 точное извлечение (доверие 12) [16314967]
Трек 3 точное извлечение (доверие 12) [A0DBC20E]
Трек 4 точное извлечение (доверие 12) [1296CAE6]
Трек 5 точное извлечение (доверие 12) [190FBF71]
Трек 6 точное извлечение (доверие 13) [54C9A274]
Трек 7 точное извлечение (доверие 12) [5FF23058]
Трек 8 точное извлечение (доверие 12) [CFD16018]
Трек 9 точное извлечение (доверие 12) [BE14B748]

Все треки извлечены точно

Конец отчёта

REM GENRE Rock
REM DATE 1974
REM DISCID 7608F109
REM COMMENT “ExactAudioCopy v0.99pb5”
PERFORMER “Uriah Heep”
TITLE “Wonderworld”
FILE “Uriah Heep – Wonderworld.flac” WAVE
TRACK 01 AUDIO
TITLE “Wonderworld”
PERFORMER “Uriah Heep”
INDEX 00 00:00:00
INDEX 01 00:00:33
TRACK 02 AUDIO
TITLE “Suicidal Man”
PERFORMER “Uriah Heep”
INDEX 00 04:31:43
INDEX 01 04:34:38
TRACK 03 AUDIO
TITLE “The Shadows and the Wind”
PERFORMER “Uriah Heep”
INDEX 00 08:12:10
INDEX 01 08:15:15
TRACK 04 AUDIO
TITLE “So Tired”
PERFORMER “Uriah Heep”
INDEX 00 12:44:60
INDEX 01 12:48:38
TRACK 05 AUDIO
TITLE “The Easy Road”
PERFORMER “Uriah Heep”
INDEX 00 16:25:63
INDEX 01 16:30:38
TRACK 06 AUDIO
TITLE “Something or Nothing”
PERFORMER “Uriah Heep”
INDEX 00 19:13:03
INDEX 01 19:15:33
TRACK 07 AUDIO
TITLE “I Won’t Mind”
PERFORMER “Uriah Heep”
INDEX 00 22:10:38
INDEX 01 22:14:45
TRACK 08 AUDIO
TITLE “We Got We”
PERFORMER “Uriah Heep”
INDEX 00 28:13:68
INDEX 01 28:18:60
TRACK 09 AUDIO
TITLE “Dreams”
PERFORMER “Uriah Heep”
INDEX 00 31:54:70
INDEX 01 31:58:38


Spread the Download

Leave a Reply

Your email address will not be published. Required fields are marked *

Enter the text from the image below
 

This site uses Akismet to reduce spam. Learn how your comment data is processed.